<?xml version="1.0" standalone="no"?>
<!DOCTYPE svg PUBLIC "-//W3C//DTD SVG 1.1//EN" "http://www.w3.org/Graphics/SVG/1.1/DTD/svg11.dtd" >
<svg xmlns="http://www.w3.org/2000/svg">
<metadata>Generated by IcoMoon</metadata>
<defs>
<font id="icomoon" horiz-adv-x="1024">
<font-face units-per-em="1024" ascent="960" descent="-64" />
<missing-glyph horiz-adv-x="1024" />
<glyph unicode="&#x20;" horiz-adv-x="512" d="" />
<glyph unicode="&#xe900;" glyph-name="gridblock" horiz-adv-x="1205" d="M843.294-64v301.176h361.412v-301.176h-361.412zM843.294 598.588h361.412v-301.176h-361.412v301.176zM843.294 960h361.412v-301.176h-361.412v301.176zM421.647 237.176h361.412v-301.176h-361.412v301.176zM421.647 598.588h361.412v-301.176h-361.412v301.176zM421.647 960h361.412v-301.176h-361.412v301.176zM0 237.176h361.412v-301.176h-361.412v301.176zM0 598.588h361.412v-301.176h-361.412v301.176zM0 960h361.412v-301.176h-361.412v301.176z" />
<glyph unicode="&#xe901;" glyph-name="gridlist" horiz-adv-x="1205" d="M0-64v301.176h1204.706v-301.176h-1204.706zM0 598.588h1204.706v-301.176h-1204.706v301.176zM0 960h1204.706v-301.176h-1204.706v301.176z" />
<glyph unicode="&#xe902;" glyph-name="starempty" horiz-adv-x="1069" d="M844.177-63.599c22.483 2.76 38.467 23.285 35.706 45.813-0.089 0.579-0.178 1.158-0.267 1.781l-52.313 318.687 229.020 227.15c16.072 15.983 16.206 42.029 0.267 58.101-6.144 6.278-14.158 10.329-22.795 11.709l-318.82 48.796-144.473 288.857c-10.195 20.302-34.816 28.449-55.073 18.254-7.836-3.962-14.247-10.374-18.209-18.254l-144.473-288.857-318.82-48.796c-22.35-3.517-37.665-24.531-34.193-46.926 1.38-8.682 5.432-16.696 11.665-22.884l229.020-227.15-52.313-318.687c-3.784-22.394 11.264-43.587 33.614-47.371 8.86-1.469 17.987-0.045 25.956 4.185l286.186 148.48 286.186-148.48c7.391-3.918 15.85-5.476 24.131-4.408v0zM785.408 51.356l-232.626 120.654c-11.843 6.144-26.001 6.144-37.843 0l-232.671-120.654 42.696 259.027c2.137 13.134-2.226 26.535-11.665 35.885l-186.368 184.765 258.805 39.135c13.178 2.003 24.621 10.24 30.586 22.216l117.537 234.808 117.537-234.808c5.966-11.976 17.408-20.213 30.586-22.216l258.805-39.135-186.368-184.765c-9.439-9.35-13.802-22.751-11.665-35.885l42.652-259.027z" />
<glyph unicode="&#xe903;" glyph-name="starfilled" horiz-adv-x="1069" d="M844.177-63.599c22.483 2.76 38.467 23.285 35.706 45.813-0.089 0.579-0.178 1.158-0.267 1.781l-52.313 318.687 229.020 227.15c16.072 15.983 16.206 42.029 0.267 58.101-6.144 6.278-14.158 10.329-22.795 11.709l-318.82 48.796-144.473 288.857c-10.195 20.302-34.816 28.449-55.073 18.254-7.836-3.962-14.247-10.374-18.209-18.254l-144.473-288.857-318.82-48.796c-22.35-3.517-37.665-24.531-34.193-46.926 1.38-8.682 5.432-16.696 11.665-22.884l229.020-227.15-52.313-318.687c-3.784-22.394 11.264-43.587 33.614-47.371 8.86-1.469 17.987-0.045 25.956 4.185l286.186 148.48 286.186-148.48c7.391-3.918 15.85-5.476 24.131-4.408v0z" />
<glyph unicode="&#xe904;" glyph-name="pin" horiz-adv-x="827" d="M698.132 228.057l-284.593-292.017-285.401 292.785c-82.609 80.482-128.236 189.578-128.236 306.944 0 233.964 185.561 424.31 413.637 424.31s413.617-190.346 413.617-424.31c0-117.465-45.804-226.757-129.024-307.712zM413.538 917.701c-205.135 0-372.027-172.032-372.027-383.468 0-106.122 41.177-204.859 115.948-278.016l256.079-263.897 255.646 263.444c75.067 73.433 116.401 172.308 116.401 278.469 0 211.436-166.892 383.468-372.047 383.468zM413.538 370.235c-87.178 0-158.11 72.763-158.11 162.186s70.932 162.166 158.11 162.166c87.198 0 158.11-72.743 158.11-162.186 0-89.423-70.912-162.166-158.11-162.166zM413.558 655.833c-64.473 0-116.913-57.364-116.913-127.902 0-70.479 52.441-127.823 116.913-127.823 64.433 0 116.874 57.364 116.874 127.862s-52.441 127.862-116.874 127.862z" />
<glyph unicode="&#xe905;" glyph-name="profile-large" horiz-adv-x="827" d="M788.539 202.476c-38.794 98.934-118.902 179.554-219.766 221.223-4.766 1.95-9.59 3.545-14.434 5.159l-27.766 9.59 26.25 13.863c86.272 48.837 139.855 138.988 139.855 235.225 0 96.177-53.602 186.289-139.914 235.205-43.973 24.852-93.302 37.258-142.612 37.258-49.329 0-98.639-12.406-142.631-37.278-86.292-48.916-139.894-139.028-139.894-235.185 0-96.217 53.602-186.368 139.894-235.225 1.989-1.103 3.998-2.127 5.986-3.151l23.198-12.052-21.524-7.503c-83.417-29.066-155.333-83.614-202.535-153.6-48.64-72.113-72.862-161.221-66.442-244.441 4.135-53.602 51.298-95.567 107.362-95.567h593.841c46.73 0 72.35 22.114 85.602 40.665 53.366 74.673-2.087 219.687-4.47 225.812zM196.962 687.537c0 72.802 40.546 141.017 105.807 178.018 64.079 36.214 150.902 36.155 214.725 0.020 65.28-36.962 105.846-105.177 105.846-178.038 0-72.881-40.566-141.115-105.866-178.078-32.571-18.471-69.947-27.707-107.303-27.707-37.376 0-74.732 9.236-107.323 27.707-65.3 36.962-105.886 105.196-105.886 178.078zM735.783 14.159l-0.039-0.059c-4.155-5.79-10.791-11.697-28.337-11.697h-593.841c-19.633 0-36.766 15.281-38.183 34.068-5.317 69.14 14.927 143.321 55.532 203.52 61.42 91.057 170.063 147.633 283.55 147.633 44.13 0 86.804-8.369 126.818-24.852 83.673-34.58 150.095-101.514 182.272-183.631 18.59-47.399 35.328-132.608 12.229-164.982z" />
<glyph unicode="&#xe906;" glyph-name="n-oprofile-large" horiz-adv-x="916" d="M60.362-61.359l-42.721 41.122 855.669 849.165 42.721-41.122-855.669-849.165zM507.455 859.109c-57.308 32.858-135.258 32.894-192.656-0.036-58.494-33.594-94.837-95.501-94.837-161.576 0-66.129 36.379-128.054 94.927-161.63 27.486-15.773 59.679-24.36 92.591-24.917l-109.73-108.903c-56.751-23.139-104.089-61.422-137.018-110.844-10.474-15.719-19.761-33.379-27.63-52.547l-83.519-82.872c5.228 59.338 25.834 118.281 59.087 168.17 43.026 64.656 106.442 112.927 183.368 139.659l19.69 6.845-18.522 9.539c-1.922 1.006-3.952 1.725-6.018 2.425-1.311 0.449-2.641 0.88-3.827 1.545-77.375 44.373-125.431 126.186-125.431 213.531 0 87.327 48.056 169.14 125.413 213.513 39.451 22.564 83.645 33.846 127.838 33.846s88.387-11.282 127.784-33.828c58.152-33.361 100.747-88.926 117.491-153.007l-54.2-53.769c-2.389 63.56-38.247 122.431-94.801 154.858zM677.654 75.551c15.719 0 21.684 5.336 25.528 10.671 19.815 28.169 6.378 105.077-10.941 149.773-16.115 41.607-42.361 79.674-76.171 110.628l43.26 42.918c40.457-37.259 71.824-82.854 90.956-132.294 2.138-5.587 51.685-137.575 4.006-205.105-11.857-16.797-34.798-36.846-76.638-36.846h-395.444l60.721 60.254h334.722z" />
<glyph unicode="&#xe907;" glyph-name="arrow-nav" horiz-adv-x="542" d="M416.020 482.305l-389.248 418.901c-12.672 13.312-13.227 34.176-1.365 50.944 5.595 4.929 12.985 7.937 21.078 7.937 0.090 0 0.179 0 0.269-0.001 9.032 0 17.309-3.456 23.325-9.771l449.109-477.781c5.973-6.315 9.259-15.019 9.259-24.533 0.005-0.218 0.008-0.475 0.008-0.732 0-9.19-3.522-17.557-9.289-23.826l-445.929-477.884c-5.79-5.952-13.876-9.645-22.825-9.645-0.136 0-0.271 0.001-0.407 0.003-0.104-0.002-0.252-0.003-0.399-0.003-8.989 0-17.102 3.746-22.865 9.762-5.756 6.338-9.274 14.778-9.274 24.040 0 0.192 0.002 0.385 0.005 0.576 0 9.315 3.37 18.275 9.258 24.419l389.291 418.987 13.269 13.824c5.034 5.334 8.128 12.546 8.128 20.48s-3.094 15.146-8.141 20.495l-13.256 13.809z" />
<glyph unicode="&#xe908;" glyph-name="desconto" d="M984.643 420.619l-524.065 527.048-371.578 0.045c-47.683 0-86.417-38.912-86.417-86.862v-373.76l524.065-527.093c25.333-25.466 66.293-25.466 91.626 0l366.325 368.462c25.333 25.511 25.333 66.694 0.045 92.16zM195.762 753.375c-25.288-25.466-66.293-25.466-91.581 0s-25.288 66.649 0 92.115c25.288 25.422 66.293 25.422 91.581 0 25.333-25.422 25.333-66.649 0-92.115zM507.993 269.334v-69.543h-66.426v64.779c-45.412 2.048-89.489 14.291-115.222 29.295l20.302 79.783c28.494-15.672 68.474-30.008 112.506-30.008 38.645 0 65.091 15.004 65.091 42.251 0 25.912-21.682 42.251-71.858 59.303-72.526 24.531-121.99 58.635-121.99 124.75 0 60.015 42.029 107.030 114.554 121.366v64.779h66.426v-60.015c45.412-2.048 75.91-11.576 98.259-22.483l-19.634-77.023c-17.631 7.48-48.796 23.151-97.592 23.151-44.077 0-58.323-19.055-58.323-38.155 0-22.483 23.73-36.819 81.341-58.635 80.673-28.627 113.219-66.115 113.219-127.466 0-60.683-42.696-112.506-120.654-126.13z" />
<glyph unicode="&#xe909;" glyph-name="entrega" d="M23.429 867.512c-21.217 19.702-22.774 53.289-3.523 74.998 19.333 21.668 52.142 23.265 73.359 3.523l158.556-148.029c8.274-7.7 13.844-17.859 15.974-29.082l108.995-569.549 584.090 117.187c27.935 6.431 55.706-11.551 62.013-40.141 6.267-28.59-11.305-56.975-39.281-63.406-0.942-0.205-1.884-0.41-2.826-0.573l-597.688-119.603c27.034-52.224 7.537-116.941-43.581-144.548-51.036-27.607-114.36-7.66-141.353 44.564-27.034 52.224-7.496 116.941 43.581 144.548 9.011 4.915 18.719 8.397 28.795 10.404 3.4 0.655 6.799 1.188 10.363 1.516l-111.657 582.369-145.818 135.823zM349.266 749.302c-4.014 21.176 9.503 41.697 30.188 45.793 0.082 0 0.164 0.041 0.246 0.041l410.542 82.248c20.644 4.096 40.673-9.667 44.728-30.761l80.445-420.045c3.973-21.094-9.462-41.574-30.106-45.711l-410.87-82.371c-20.644-4.055-40.632 9.667-44.728 30.802l-80.445 420.004zM555.090 544.707l21.791-14.746 23.020-16.015c12.78-8.806 30.065-5.407 38.748 7.619l15.647 23.552 55.951 84.91c7.7 13.64 3.113 31.089-10.24 38.994-12.083 7.086-27.361 4.055-35.963-7.168l-55.91-84.91-21.381 14.868c-12.78 8.806-30.065 5.366-38.707-7.619v0c-8.643-12.943-5.489-30.515 7.045-39.485z" />
<glyph unicode="&#xe90a;" glyph-name="reembolso" horiz-adv-x="981" d="M598.315 396.928c155.435 0 281.387 125.227 281.387 279.68 0 154.496-125.952 279.723-281.387 279.723s-281.429-125.227-281.429-279.723c0-154.453 125.995-279.68 281.429-279.68zM499.797 575.915c2.517 9.259 4.821 17.536 7.424 25.728 1.451 4.736 4.565 14.379 14.592 14.379 4.011-0.213 7.893-1.408 11.349-3.499 14.507-7.381 30.208-12.032 46.379-13.781 9.557-1.323 19.285-0.085 28.16 3.627 9.003 2.987 13.867 12.629 10.88 21.589-1.237 3.627-3.627 6.741-6.827 8.832-5.035 3.925-10.581 7.125-16.469 9.557-5.12 2.261-10.411 4.352-15.445 6.315-12.288 4.693-24.192 10.325-35.627 16.853-31.275 18.773-45.867 43.136-43.989 74.624 2.304 36.779 22.443 62.165 59.819 75.691 8.363 3.029 8.363 3.029 8.363 11.307v4.139c0 3.115 0 6.229 0 9.344 0 14.592 5.504 19.755 20.096 20.181h12.715c25.131 0 27.52-5.291 27.648-29.952 0-9.088 0-9.088 9.173-10.325 12.629-2.048 24.96-5.717 36.651-10.88 9.173-3.456 13.824-13.568 10.453-22.699l-2.432-8.192c-1.963-6.912-3.925-13.995-6.229-20.693-1.067-5.333-4.395-9.984-9.173-12.629-5.461-1.749-11.392-1.024-16.256 1.963-15.915 7.765-33.579 11.349-51.285 10.325-4.096-0.043-8.192-0.853-11.989-2.347-4.907-1.749-8.576-5.931-9.6-11.008-0.299-4.992 2.005-9.813 6.144-12.629 6.741-5.077 14.123-9.216 22.016-12.203l5.205-2.176c13.44-5.248 26.539-11.221 39.296-17.963 23.552-12.587 40.235-34.987 45.44-61.099 4.651-24.491-1.92-49.792-17.92-68.992-12.245-14.805-28.8-25.387-47.445-30.251-4.48-1.237-4.992-2.261-4.779-5.888s0-10.368 0-15.232v-1.579c0-2.133 0-4.309 0-6.485 0.768-9.429-6.315-17.664-15.744-18.389-0.725-0.085-1.451-0.085-2.176-0.085h-24.405c-9.771-0.384-18.005 7.125-18.475 16.853 0 0.64 0 1.28 0.043 1.92v16.768c0 1.237 0 4.48 0 6.101l-5.632 0.939c-16.171 2.176-31.957 6.741-46.805 13.483v0c-14.293 6.955-17.28 13.269-13.141 28.459zM942.763 285.909l-204.075-235.776c-30.421-34.645-74.411-54.528-120.704-54.485h-318.379l-55.467-55.211-243.968 199.083 139.947 137.344c76.629 75.221 190.848 98.048 290.816 58.112h172.715c35.755 0 64.811-28.843 64.811-64.427s-29.056-64.427-64.811-64.427h-133.845c-11.861 0-21.461-9.557-21.461-21.333s9.6-21.333 21.461-21.333h151.637c21.803 0.043 42.581 9.344 57.003 25.557l163.456 185.557c24.533 27.691 67.072 30.421 94.933 6.016 27.904-24.405 30.592-66.645 6.059-94.379l-0.128-0.299z" />
<glyph unicode="&#xe90b;" glyph-name="expand" d="M968.158 461.722c-30.583 0-55.296 24.781-55.296 55.296v253.611l-403.524-403.388c0 0 0 0-0.068 0l-320.444-320.444h253.747c30.583 0 55.364-24.713 55.364-55.228 0-30.583-24.781-55.296-55.364-55.296h-387.277c-7.168 0-14.336 1.434-21.163 4.233-13.517 5.598-24.303 16.384-29.901 29.901-2.662 6.554-4.028 13.517-4.096 20.48 0 0.205-0.137 0.41-0.137 0.683v387.14c0 30.515 24.781 55.364 55.296 55.364 30.583 0 55.364-24.849 55.364-55.364v-253.611l320.444 320.375c0 0 0 0 0.068 0l403.388 403.388h-253.679c-30.583 0-55.296 24.713-55.296 55.296s24.713 55.296 55.296 55.296h387.209c7.236 0 14.473-1.434 21.299-4.233 5.393-2.253 10.035-5.803 14.473-9.557 1.024-0.956 2.389-1.297 3.413-2.321 0.546-0.546 0.683-1.229 1.229-1.775 4.437-4.779 8.192-10.103 10.718-16.247 2.731-6.622 4.164-13.653 4.233-20.753 0-0.137 0.068-0.205 0.068-0.41v-387.14c0-30.515-24.781-55.296-55.364-55.296z" />
<glyph unicode="&#xe90c;" glyph-name="timer-2" d="M511.953 960.047c-283.183 0-512-230.4-512-512.047 0-281.6 228.817-511.953 512-511.953 280.017 0 512 230.353 512 511.953 0 281.647-231.983 512.047-512 512.047zM751.942 276.852c-12.8-19.223-35.188-27.183-55.994-27.183-14.383 0-27.183 4.748-39.983 11.171l-193.629 123.206c-17.594 11.171-27.183 35.188-25.553 59.206v227.188c0 38.4 33.606 70.377 75.171 70.377 38.4 0 72.006-31.977 72.006-70.377v-204.8l156.812-97.606c17.594-9.588 25.6-28.812 25.6-47.988 0-14.383-4.794-28.812-14.429-43.194z" />
<glyph unicode="&#xe90d;" glyph-name="linkedin" horiz-adv-x="975" d="M885.565 935.619h-815.006c-38.912 0-70.558-30.866-70.558-68.949v-818.371c0-38.083 31.646-68.998 70.558-68.998h815.006c38.961 0 70.754 30.915 70.754 68.998v818.371c0 38.083-31.793 68.949-70.754 68.949zM283.697 120.71h-141.995v456.411h141.995v-456.411zM212.748 639.439c-45.544 0-82.31 36.864-82.31 82.261s36.766 82.261 82.31 82.261c45.349 0 82.213-36.864 82.213-82.261s-36.864-82.261-82.213-82.261zM814.909 120.71h-141.8v221.964c0 52.907-0.926 121.027-73.728 121.027-73.777 0-85.041-57.685-85.041-117.224v-225.768h-141.653v456.411h135.948v-62.415h1.95c18.871 35.889 65.195 73.728 134.193 73.728 143.604 0 170.13-94.501 170.13-217.429v-250.295z" />
<glyph unicode="&#xe90e;" glyph-name="calendar" d="M870.4-63.949h-716.8c-84.838 0-153.6 68.762-153.6 153.6v614.4c0 84.787 68.762 153.549 153.6 153.549h51.2v51.2c0 28.262 22.938 51.251 51.2 51.251s51.2-22.989 51.2-51.251v-51.2h409.6v51.2c0 28.262 22.938 51.251 51.2 51.251s51.2-22.989 51.2-51.251v-51.2h51.2c84.838 0 153.6-68.762 153.6-153.549v-614.4c0-84.838-68.762-153.6-153.6-153.6zM921.6 652.851h-819.2v-563.2c0-28.262 22.938-51.2 51.2-51.2h716.8c28.262 0 51.2 22.938 51.2 51.2v563.2zM716.8 294.4c-28.262 0-51.2 22.938-51.2 51.2 0 28.314 22.938 51.251 51.2 51.251s51.2-22.938 51.2-51.251c0-28.262-22.938-51.2-51.2-51.2zM716.8 448.051c-28.262 0-51.2 22.938-51.2 51.2s22.938 51.2 51.2 51.2c28.262 0 51.2-22.938 51.2-51.2s-22.938-51.2-51.2-51.2zM563.2 140.851c-28.262 0-51.2 22.886-51.2 51.2 0 28.211 22.938 51.2 51.2 51.2s51.2-22.989 51.2-51.2c0-28.314-22.938-51.2-51.2-51.2zM563.2 294.4c-28.262 0-51.2 22.938-51.2 51.2 0 28.314 22.938 51.251 51.2 51.251s51.2-22.938 51.2-51.251c0-28.262-22.938-51.2-51.2-51.2zM563.2 448.051c-28.262 0-51.2 22.938-51.2 51.2s22.938 51.2 51.2 51.2c28.262 0 51.2-22.938 51.2-51.2s-22.938-51.2-51.2-51.2zM409.6 140.851c-28.262 0-51.2 22.886-51.2 51.2 0 28.211 22.938 51.2 51.2 51.2s51.2-22.989 51.2-51.2c0-28.314-22.938-51.2-51.2-51.2zM409.6 294.4c-28.262 0-51.2 22.938-51.2 51.2 0 28.314 22.938 51.251 51.2 51.251s51.2-22.938 51.2-51.251c0-28.262-22.938-51.2-51.2-51.2zM409.6 448.051c-28.262 0-51.2 22.938-51.2 51.2s22.938 51.2 51.2 51.2c28.262 0 51.2-22.938 51.2-51.2s-22.938-51.2-51.2-51.2zM256 140.851c-28.262 0-51.2 22.886-51.2 51.2 0 28.211 22.938 51.2 51.2 51.2s51.2-22.989 51.2-51.2c0-28.314-22.938-51.2-51.2-51.2zM256 294.4c-28.262 0-51.2 22.938-51.2 51.2 0 28.314 22.938 51.251 51.2 51.251s51.2-22.938 51.2-51.251c0-28.262-22.938-51.2-51.2-51.2z" />
<glyph unicode="&#xe90f;" glyph-name="wifi" horiz-adv-x="1170" d="M1142.882 592.091c-12.128-9.626-27.659-15.443-44.547-15.443-22.975 0-43.436 10.766-56.614 27.527-100.905 129.261-256.551 211.49-431.403 211.49-0.399 0-0.798 0-1.197-0.001-169.776 0-327.423-77.044-432.456-211.334-13.286-16.914-33.738-27.678-56.704-27.678-16.881 0-32.404 5.816-44.674 15.553-16.736 13.302-27.467 33.834-27.467 56.873 0 16.922 5.789 32.492 15.495 44.838 132.465 169.291 331.463 266.474 545.869 266.474 214.357 0 413.355-97.182 545.89-266.63 9.599-12.194 15.395-27.773 15.395-44.705 0-23.026-10.718-43.548-27.437-56.85zM609.182 588.142c0.329 0.001 0.718 0.002 1.108 0.002 139.247 0 261.226-73.929 328.83-184.677 7.616-12.444 11.561-25.482 11.561-39.441 0-25.997-13.681-48.798-34.236-61.597-11.009-6.834-23.997-10.78-37.906-10.78-25.95 0-48.693 13.734-61.355 34.329-43.26 70.921-119.876 117.342-207.334 117.342-0.235 0-0.47 0-0.704-0.001-0.176 0.001-0.428 0.001-0.68 0.001-87.458 0-164.074-46.421-206.553-115.968-21.375-35.195-65.798-45.972-99.736-25.102-20.851 12.968-34.526 35.755-34.526 61.737 0 13.976 3.957 27.028 10.811 38.096 68.339 112.127 190.286 186.060 329.502 186.060 0.428 0 0.856-0.001 1.284-0.002zM609.182 213.163c76.336-0.194 138.143-62.121 138.143-138.483 0-0.086 0-0.172 0-0.257 0-0.045 0-0.113 0-0.182 0-76.353-61.813-138.268-138.127-138.435-76.367 0.139-138.207 62.065-138.207 138.435 0 0.069 0 0.137 0 0.206 0 0.062 0 0.147 0 0.233 0 76.38 61.835 138.317 138.175 138.483z" />
<glyph unicode="&#xe910;" glyph-name="site" d="M512-63.907c-282.81 0-512.047 229.19-512.047 512 0 282.764 229.236 511.953 512.047 511.953 282.764 0 512-229.19 512-511.953 0-282.81-229.236-512-512-512zM162.257 442.927c-14.854 23.568-27.079 50.79-35.259 79.71-2.104 11.269-3.002 21.702-3.002 32.344 0 0.157 0 0.313 0.001 0.47 0 9.983 0.698 19.804 2.048 29.439-15.010-40.783-23.692-87.88-23.692-137.005 0-0.271 0-0.541 0.001-0.812 0 0.037 0 0.030 0 0.024 0-189.246 128.825-348.403 303.563-394.56 6.895 5.924 7.546 14.302 7.546 22.82 0 23.412-5.213 45.661-14.569 65.629-18.73 21.57-34.639 46.305-46.714 73.138-7.185 31.682 16.925 55.467 11.805 78.135-15.529 15.465-34.319 27.668-55.247 35.489-17.994 11.745-37.419 22.495-57.77 31.537-41.979 18.385-71.349 47.057-88.338 82.711l-0.372 0.931zM722.944 798.58c-2.177-7.553-5.558-14.131-9.971-19.875-21.261-15.080-47.373-21.178-68.365-37.050-13.359-10.24-22.575-29.277-35.328-38.307-30.255-21.178-48.64-10.193-50.688 32.489 4.236 31.279 6.609 67.351 6.609 104.029v2.793c-0.112 1.705-0.177 3.696-0.177 5.702s0.064 3.997 0.19 5.971c-15.839 1.732-34.271 3.175-53.029 3.408-12.986 0-25.321-0.791-37.609-1.908 7.215-16.943 25.088-31.977 33.839-52.783 3.677-8.052 5.818-17.501 5.818-27.415 0-14.941-4.887-28.765-13.172-39.843-14.196-51.433 18.060-81.734 23.226-130.42 4.608-44.963 4.096-15.36-27.695-29.231-6.656-2.932-12.8-15.36-18.432-17.361-14.505-2.439-27.060-5.527-39.25-9.435-29.439-22.411-54.689-51.921-72.101-86.093-0.685-6.174-0.405-10.084-0.405-13.994 0-10.612-2.188-20.713-6.144-29.836-16.198-8.937-6.423 9.588-16.198 12.381-8.235 7.686-18.848 12.922-30.621 14.491-19.543-0.673-36.844-8.507-49.742-20.892-31.16-51.967 40.008-28.648 53.832-36.374 8.564-18.991 17.641-35.095 27.881-50.362 11.031-8.332-1.257-12.94 19.735-16.477 16.989 5.492 31.232 11.357 44.916 18.153 49.804 4.282 78.988-37.236 117.9-63.907 29.874-11.67 55.683-26.080 79.154-43.467 1.23-8.245 2.952-19.23 2.952-30.587 0-23.552-7.587-45.335-20.433-63.023-11.124-13.312-23.738-25.321-37.609-35.747-7.494-12.847-14.383-27.927-20.247-43.427-5.632-9.635-10.333-15.825-15.407-21.69 131.822 1.659 248.451 65.266 322.324 162.994-13.309 5.966-32.765 2.475-61.949 9.411-37.828 9.142-65.49 42.703-65.49 82.724 0 8.182 1.156 16.093 3.314 23.58 9.44 33.006 40.672 56.279 47.84 90.396 2.839 21.132 9.169 40.262 18.385 57.577 7.215 13.405 27.695 23.924 6.144 43.38-3.411 0.137-6.607 0.912-9.521 2.207-9.376 6.777-37.536 26.186-6.816 44.153 1.782 1.021 2.967 2.908 2.979 5.072 0 0.007 0 0.013 0 0.020 0 1.936-0.969 3.646-2.448 4.671 0.281 8.243 4.359 15.462 10.523 20.024 4.673 0.978 8.702 2.989 12.024 5.807 2.475-0.869 47.485-112.718 55.723-29.728 2.048 18.851-13.824 7.401-16.896 28.3 0.007 26.96 8.921 51.836 23.96 71.848 0.622 0.748 1.382 1.939 2.008 3.208-34.122 54.73-79.033 99.523-132.033 132.553l-3.503 1.892z" />
<glyph unicode="&#xe911;" glyph-name="medico" horiz-adv-x="945" d="M842.082-44.268h-738.816c-40.566 0-73.492 33.595-73.492 75.028v102.951h0.039c0.433 108.19 10.398 197.317 77.115 273.014 59.156 67.111 171.166 106.654 199.089 115.003-8.095 15.727-14.223 33.978-17.416 53.221-0.421 1.941-0.655 2.966-0.806 4.017l-20.374 121.293c-0.118 0.962-0.19 2.083-0.197 3.22-1.178 8.074-1.877 17.425-1.93 26.929 0 115.811 92.239 209.9 205.548 209.9 113.349 0 205.548-94.090 205.548-209.841 0-8.428-0.591-17.132-1.89-27.057 0-0.006 0-0.014 0-0.022 0-1.104-0.086-2.189-0.251-3.247l-20.307-121.069c-0.17-1.179-0.403-2.217-0.709-3.224-3.251-19.828-9.226-37.76-17.583-54.283 20.3-4.643 140.935-44.657 202.769-114.841 66.245-75.146 76.564-163.604 77.076-270.73h0.079v-105.236c0-41.433-32.886-75.028-73.492-75.028zM276.953 456.271c-1.702 2.761-3.028 4.777-4.394 6.763-44.719-17.751-97.888-47.368-132.546-86.674-56.478-64.118-66.639-141.982-67.426-242.727 0.079 0 0.158 0 0.236 0.079v-102.951c0-17.172 13.666-31.074 30.444-31.074h347.057v235.638l-173.371 220.948zM470.843 280.3l156.121 193.063-18.865 7.089c-34.146-38.754-83.456-63.055-137.255-63.055-53.76 0-103.070 24.3-137.255 63.055l-18.865-7.089 156.121-193.063zM530.196 759.375c-91.412-76.642-196.096-56.596-220.199-54.193l18.078-117.248c0.251-0.805 0.458-1.765 0.582-2.751 10.17-71.765 71.295-125.8 142.187-125.8s132.057 54.036 142.218 125.716c0.13 1.076 0.351 2.049 0.661 2.981l13.833 105.996c-24.34 2.087-58.683 13.036-97.359 65.3zM805.337 376.359c-35.249 40.015-90.112 69.986-135.326 87.040l-3.545-4.962-175.065-223.114v-235.638h350.681c16.857 0.199 30.446 13.911 30.446 30.797 0 0.098 0 0.195-0.001 0.293v110.065l0.197-0.079c-1.182 97.477-12.13 172.898-67.387 235.599zM746.181 207.557h-41.118v-41.945c0.001-0.071 0.001-0.154 0.001-0.238 0-11.402-9.177-20.661-20.548-20.794-11.396 0.133-20.573 9.391-20.573 20.794 0 0.084 0 0.167 0.001 0.25v41.932h-41.118c-11.378 0.111-20.56 9.361-20.56 20.755 0 0.070 0 0.139 0.001 0.208 0 11.608 9.216 20.981 20.559 20.981h41.118v41.984c0 11.579 9.216 20.992 20.559 20.992s20.559-9.413 20.559-20.992v-41.984h41.118c11.303 0 20.559-9.374 20.559-20.992 0-0.047 0.001-0.103 0.001-0.159 0-11.402-9.176-20.661-20.547-20.794z" />
<glyph unicode="&#xe912;" glyph-name="mb" horiz-adv-x="1122" d="M1020.977-63.902h-920.478c-105.765 0-106.837 106.886-96.061 159.695 5.9 35.45 69.291 35.157 76.264 0v-41.204c0-18.822 16.189-34.231 35.986-34.231h888.101c19.797 0 35.986 15.409 35.986 34.231v41.204c6.973 35.157 70.363 35.45 76.264 0 10.728-52.809 9.704-159.695-96.061-159.695zM1101.336 335.409c0-73.972-67.877-134.485-150.869-134.485h-232.643c-21.748 0-39.546 15.896-39.546 35.255v420.913c0 20.236 17.506 36.913 38.863 36.913h193.731c81.579 0 148.285-63.439 148.285-140.873-0.16-38.22-16-72.71-41.415-97.394 49.46-22.219 83.594-67.86 83.594-120.328zM947.2 412.258h-29.257v0.146h-73.826c-22.43 0-40.765 17.457-40.765 38.766s18.334 38.766 40.765 38.766h73.826v0.78c33.646 4.925 59.636 32.768 59.636 66.024 0 36.718-31.646 66.804-70.266 66.804h-148.724v-349.282h188.611c39.887 0 72.509 31.061 72.509 69.047 0 37.888-32.622 68.949-72.509 68.949zM947.346 824.003v23.991c0 15.214-13.117 27.697-29.16 27.697h-715.727c-15.994 0-29.111-12.483-29.111-27.697v-23.503c0-61.684-84.212-61.294-84.212-1.365v45.154c0 50.517 41.009 91.819 91.234 91.819h764.148c50.176 0 91.234-41.301 91.234-91.819v-43.886c0-62.025-88.405-61.781-88.405-0.39zM132.876 702.732l2.536 0.244c3.95 0.39 7.899 0.536 11.752 0.341l0.195-0.049v0.049c5.071-0.244 9.752-0.878 14.092-1.804 24.137-5.364 44.617-21.309 54.272-44.617l115.419-278.821 115.419 278.821c9.76 22.667 29.632 39.356 53.775 44.528 4.836 1.016 9.566 1.65 14.589 1.893v-0.049l0.195 0.049c3.901 0.195 7.851 0.049 11.8-0.341l2.536-0.244 0.049-0.049c25.307-3.316 46.519-17.749 58.027-38.278 4.317-7.662 7.379-16.621 8.639-26.148l0.041-0.671 45.105-394.581c2.731-24.43-15.848-46.275-41.448-48.859-25.649-2.584-48.664 15.067-51.346 39.448l-38.278 334.702-136.874-330.41-0.341-0.634-0.488-0.975-0.146-0.244c-2.559-4.538-5.711-8.404-9.411-11.661l-0.195-0.189-0.683-0.585c-2.364-2.001-5.017-3.798-7.854-5.297l-0.436-0.262-0.878-0.439h-0.049l-0.78-0.439-0.39-0.146-1.073-0.488-0.488-0.244-0.585-0.244-0.536-0.195-0.439-0.195-0.439-0.146-0.244-0.098-0.39-0.146-0.634-0.195-0.341-0.146c-4.060-1.378-8.747-2.256-13.613-2.435l-0.626-0.051h-2.292l-0.585 0.049c-5.53 0.186-10.749 1.279-15.591 3.134l-0.305 0.133-0.146 0.098-0.634 0.195-0.634 0.293-0.975 0.39-1.755 0.878h-0.049l-0.731 0.39-0.439 0.195c-2.719 1.533-5.046 3.098-7.241 4.822l-0.073 0.054-1.512 1.317h-0.049l-1.17 1.073-1.17 1.17-1.365 1.463-0.146 0.146c-1.771 2.001-3.398 4.218-4.813 6.576l-0.356 0.592-0.39 0.731-0.049 0.049-0.439 0.78-0.146 0.341-0.293 0.536-0.244 0.488-0.195 0.439-0.293 0.634-0.244 0.585-0.049 0.146-0.293 0.585-135.607 327.582-38.229-334.702c-2.731-24.381-25.746-42.033-51.346-39.448-25.649 2.584-44.227 24.43-41.496 48.859l45.105 394.581v0.098l0.049 0.195h-0.049c1.234 9.908 4.321 18.878 8.912 26.874 11.324 20.181 32.486 34.615 57.794 37.93l0.098 0.049z" />
<glyph unicode="&#xe913;" glyph-name="estacionamento" d="M882.59-63.902h-737.719c-78.312 0-144.482 63.537-144.482 141.897v737.816c0 78.409 66.17 144.286 144.482 144.286h737.719c78.36 0 141.605-65.877 141.605-144.286v-737.816c0-0.072 0-0.158 0-0.244 0-78.216-63.393-141.626-141.602-141.653zM745.521 649.289c-19.017 30.622-45.836 53.297-80.555 69.876-34.67 16.628-74.557 23.064-119.613 23.064h-240.006v-588.264h141.605v206.946h95.963c71.778 0 128.244 15.019 169.448 49.396 41.106 34.426 61.684 78.799 61.684 136.29 0 38.863-9.557 72.021-28.526 102.693zM545.353 469.845h-98.402v163.401h100.011c25.649 0 45.885-6.68 60.709-23.113 14.824-16.53 22.284-36.523 22.284-64.073 0-25.112-7.217-43.593-21.699-57.344-14.385-13.8-35.401-18.871-62.903-18.871z" />
<glyph unicode="&#xe914;" glyph-name="acessibilidade" horiz-adv-x="838" d="M682.496 37.329l-134.749 315.159h-315.066l-22.342 426.496c-30.577 16.422-51.016 48.179-51.016 84.71 0 0.23 0.001 0.46 0.002 0.689 0 52.84 41.472 95.662 92.672 95.662 51.153 0 92.672-42.822 92.672-95.697 0-38.54-22.109-71.633-53.9-86.854l10.054-191.116h217.135v-84.666h-212.713l3.351-64.512h291.002l123.159-288.116 82.432 38.865 32.768-77.265-155.462-73.356zM169.332 467.363c-55.040-47.155-89.698-116.736-89.698-194.412 0-0.543 0.002-1.085 0.005-1.627 0-138.11 106.542-250.564 237.521-250.564 112.919 0 207.639 83.596 231.61 195.212l46.033-107.567c-54.412-102.679-158.441-172.311-277.644-172.311-175.197 0-317.766 150.388-317.766 335.313 0 126.417 66.653 236.684 164.817 293.795l5.12-97.839z" />
<glyph unicode="&#xe915;" glyph-name="Loading" d="M977.92 596.48c-25.6 81.92-71.68 153.6-133.12 209.92l-66.56-66.56c51.2-46.080 87.040-102.4 107.52-163.84l92.16 20.48zM906.24 427.52c-10.24-209.92-184.32-373.76-394.24-373.76-220.16 0-394.24 179.2-394.24 394.24 0 220.16 179.2 394.24 394.24 394.24v92.16c-271.36 0-486.4-220.16-486.4-486.4 0-271.36 220.16-486.4 486.4-486.4 256 0 471.040 199.68 486.4 455.68l-92.16 10.24z" />
<glyph unicode="&#xe916;" glyph-name="assistenciaestrangeiro" horiz-adv-x="778" d="M751.616-64h-684.032c-36.864 0-67.584 28.672-67.584 65.536v892.928c0 36.864 30.72 65.536 67.584 65.536h479.232c6.144 0 12.288-2.048 16.384-6.144l247.808-231.424c4.096-4.096 8.192-10.24 8.192-16.384v-704.512c0-36.864-30.72-65.536-67.584-65.536zM772.096 695.808l-233.472 217.088h-471.040c-12.288 0-22.528-8.192-22.528-18.432v-892.928c0-10.24 10.24-18.432 22.528-18.432h681.984c12.288 0 22.528 8.192 22.528 18.432 0 0 0 694.272 0 694.272zM718.848 630.272c-47.104 0-94.208-4.096-141.312 0-38.912 2.048-65.536 26.624-69.632 65.536-6.144 51.2 0 104.448 0 155.648 0 30.72 47.104 30.72 47.104 0 0-45.056 4.096-92.16 0-137.216-4.096-43.008 30.72-38.912 65.536-38.912h98.304c30.72 2.048 30.72-45.056 0-45.056zM188.416 404.992h440.32c30.72 0 30.72-47.104 0-47.104h-440.32c-28.672 0-28.672 47.104 0 47.104zM188.416 280.064h440.32c30.72 0 30.72-47.104 0-47.104h-440.32c-28.672 0-28.672 47.104 0 47.104zM188.416 155.136h440.32c30.72 0 30.72-47.104 0-47.104h-440.32c-28.672 0-28.672 47.104 0 47.104zM385.024 607.744h-71.68v-71.68c0-20.48-16.384-34.816-34.816-34.816-20.48 0-34.816 16.384-34.816 34.816v71.68h-73.728c-20.48 0-34.816 16.384-34.816 34.816 0 20.48 16.384 34.816 34.816 34.816h71.68v71.68c0 20.48 16.384 34.816 34.816 34.816 20.48 0 34.816-16.384 34.816-34.816v0-71.68h71.68c20.48 0 34.816-16.384 34.816-34.816 2.048-20.48-12.288-34.816-32.768-34.816z" />
<glyph unicode="&#xe917;" glyph-name="checkup" horiz-adv-x="737" d="M694.313-64.082h-651.469c-23.469 0.047-42.476 19.082-42.476 42.557 0 0.043 0 0.086 0 0.13v810.796c0 0.024 0 0.053 0 0.082 0 23.483 19.002 42.528 42.469 42.598h115.309c6.4 24.648 28.418 42.567 54.632 42.639h86.434c-0.93 4.31-1.462 9.261-1.462 14.336 0 39.149 31.675 70.901 70.795 71.024 39.164-0.157 70.842-31.932 70.842-71.106 0-5.046-0.526-9.969-1.525-14.718l86.507 0.464c26.337 0 48.333-18.186 54.641-42.639h115.302c23.491-0.047 42.517-19.101 42.517-42.598 0-0.029 0-0.058 0-0.086v-810.799c0-0.024 0-0.053 0-0.082 0-23.498-19.025-42.552-42.512-42.598zM368.599 931.656c-23.429 0-42.516-19.169-42.516-42.68 0-5.038 1.024-9.748 2.662-14.254 5.816-16.466 21.381-28.426 39.854-28.426 18.391 0 33.997 11.96 39.854 28.426 1.597 4.506 2.621 9.216 2.621 14.254 0 0.024 0 0.053 0 0.082 0 23.483-19.002 42.528-42.469 42.598zM691.896 786.944h-110.879v-42.68h-424.878v42.68h-110.838v-800.317h646.595v800.317zM219.218 268.759l50.995 51.2 25.805-25.928-76.8-77.128-49.398 49.644 25.805 25.928 23.593-23.716zM219.218 141.537l50.995 51.2 25.805-25.928-76.8-77.128-49.398 49.603 25.805 25.969 23.593-23.716zM245.555 530.248c0 23.020 16.056 41.697 35.758 41.697h51.651v60.129c0 23.020 16.015 41.697 35.717 41.697 19.743 0 35.799-18.678 35.799-41.697v-60.129h51.61c19.702 0 35.717-18.678 35.717-41.697 0-22.979-16.015-41.697-35.717-41.697h-51.61v-60.252c0-22.979-16.056-41.697-35.799-41.697-19.702 0-35.717 18.719-35.717 41.697v60.252h-51.651c-19.702 0-35.758 18.719-35.758 41.697zM369.869 285.102h173.302c13.799 0 24.986-11.186 24.986-24.986s-11.186-24.986-24.986-24.986h-173.302c-13.799 0-24.986 11.186-24.986 24.986s11.186 24.986 24.986 24.986zM369.869 164.762h173.302c13.788 0 24.965-11.177 24.965-24.965s-11.177-24.965-24.965-24.965h-173.302c-13.788 0-24.965 11.177-24.965 24.965s11.177 24.965 24.965 24.965z" />
<glyph unicode="&#xe918;" glyph-name="contact" d="M307.2 960h-19.141c-78.285-0.004-149.158-31.73-200.469-83.024-54.154-54.116-87.652-128.899-87.652-211.505 0-55.554 15.15-107.569 41.545-152.14 131.458-222.573 313.196-404.311 530.218-532.73 50.133-29.44 102.161-44.593 157.729-44.593 82.621 0 157.418 33.501 211.547 87.661 51.297 51.29 83.024 122.148 83.024 200.417 0 0.018 0 0.037 0 0.055v19.059l-273.093 102.479-102.4-102.479c-136.108 91.61-249.724 205.251-338.524 337.003l99.617 106.782-102.4 273.014z" />
<glyph unicode="&#xe919;" glyph-name="doenasgraves" horiz-adv-x="1350" d="M1319.657-64h-1289.588c-15.376 1.093-27.436 13.835-27.436 29.393s12.060 28.301 27.342 29.388l1289.683 0.005c16.291 0 29.51-13.172 29.51-29.37-0.026-16.252-13.207-29.417-29.463-29.417-0.016 0-0.033 0-0.049 0zM1160.099 122.647h-970.38c-53.248 0-96.396 42.356-96.396 94.58l-7.261 645.446c0 53.807 43.706 97.42 97.606 97.42h982.481c53.9 0 97.606-43.613 97.606-97.42l-7.261-645.446c0-52.224-43.194-94.58-96.396-94.58zM1166.15 903.028h-982.481c-22.296-0.026-40.369-18.067-40.448-40.347l6.563-645.453c0.236-21.67 17.858-39.147 39.561-39.147 0.132 0 0.263 0.001 0.395 0.002h970.36c0.098-0.001 0.213-0.001 0.329-0.001 21.713 0 39.345 17.471 39.607 39.121l6.563 645.471c-0.079 22.288-18.152 40.329-40.445 40.355zM1070.918 549.655h-127.953l-58.042-240.081c-3.009-11.7-12.66-20.507-24.602-22.23l-7.654-0.065c-11.594 1.42-21 9.438-24.426 20.133l-108.322 343.992-95.791-243.898c-4.038-10.214-13.39-17.51-24.556-18.517-1.020-0.109-2.072-0.166-3.137-0.166-10.385 0-19.498 5.441-24.646 13.628l-92.976 147.205h-199.913c0 0 0 0 0 0-16.249 0-29.43 13.133-29.509 29.363 0 16.252 13.265 29.424 29.51 29.424h216.204c10.193 0 19.549-5.12 24.948-13.731l70.47-111.523 105.007 267.404c4.584 11.044 15.282 18.67 27.762 18.67 0.205 0 0.41-0.002 0.615-0.006 12.537-0.418 23.428-8.657 27.198-20.526l101.423-322.281 38.54 159.511c3.196 12.995 14.747 22.482 28.514 22.482 0.055 0 0.111 0 0.166 0h151.171c16.244 0 29.463-13.172 29.463-29.417-0.053-16.232-13.224-29.37-29.463-29.37 0 0 0 0 0 0z" />
<glyph unicode="&#xe91a;" glyph-name="flag" horiz-adv-x="901" d="M860.16 345.6h-245.76l-1.925-78.029c0-11.141-3.031-31.048 1.925-44.851 8.397-1.638-29.368 3.113-40.96 0h-450.56c-27.279 0-40.96 13.353-40.96 40.96v532.48c0 28.959 13.763 40.96 40.96 40.96h245.76l-0.164 77.824c0 28.836 13.435 42.394 40.632 42.394h431.145c5.98 0 13.189 5.571 16.097 0 2.867-5.53 3.195-36.987 0-42.394l-200.991-282.624 204.8-245.76c0.778-17.121 0.205-31.416-2.54-36.332-2.744-4.956 8.192-4.628 2.54-4.628zM573.44 345.6h-122.88l121.037-78.029 1.843 78.029zM368.64 796.16h-245.76v-532.48h368.64l-124.232 86.548 1.352 445.932zM573.44 632.32l245.76 286.72h-409.6c-9.052 0-1.72-4.383-1.72-14.008l-1.516-474.399c0-3.523 1.393-41.37 3.236-44.073h409.6l-245.76 245.76zM573.44 632.32c-3.318-5.53-3.318 5.53 0 0zM2.54-60.027l0.573 886.129 40.1 4.055v-890.184c4.506 0.451-31.826 0-40.673 0zM2.54-60.027c0-9.298-8.847 0 0 0z" />
<glyph unicode="&#xe91b;" glyph-name="medicamento" d="M809.236 513.694c41.59-12.997 79.321-36.391 111.852-68.923 51.444-52.076 83.22-123.682 83.22-202.709 0-0.070 0-0.141 0-0.211 0-76.75-28.593-149.572-83.22-202.899-54.666-53.327-126.188-83.259-202.91-83.259-0.17 0-0.372-0.001-0.574-0.001-79.154 0-150.754 32.341-202.307 84.531-30.323 30.739-53.913 68.146-68.369 109.821l-50.049-47.328c-39.874-40.122-95.067-64.981-156.066-65.063-61.030 0.082-116.223 24.941-156.086 65.052-40.114 39.879-64.957 95.057-65.035 156.038 0.085 61.022 24.927 116.21 65.014 156.086l461.755 460.494c39.886 40.097 95.074 64.939 156.065 65.024 58.581 0 114.507-23.394 156.098-65.024 40.117-39.892 64.974-95.095 65.063-156.103-0.098-61.017-24.954-116.192-65.052-156.048l-49.399-49.478zM552.96 76.682c42.116-42.565 100.54-68.923 165.12-68.923 0.035 0 0.069 0 0.104 0 0.013 0 0.033 0 0.054 0 64.58 0 123.004 26.358 165.1 68.903 42.585 42.136 68.943 100.56 68.943 165.14 0 0.021 0 0.042 0 0.062 0 62.422-24.694 120.986-67.623 166.476-33.831 32.532-74.161 54.666-118.351 63.764l-277.071-277.071c9.873-46.606 32.376-86.896 63.731-118.357zM121.147 378.447c-31.232-32.532-49.428-74.161-49.428-119.69 0-45.489 16.896-87.119 49.428-119.65 32.532-31.232 74.122-49.428 119.65-49.428 0.439-0.004 0.957-0.007 1.476-0.007 46.239 0 88.061 18.909 118.156 49.416l212.065 212.026-239.34 239.34-212.007-212.007zM820.933 838.892c-32.532 31.193-74.161 49.428-119.69 49.428-0.429 0.004-0.936 0.006-1.444 0.006-46.249 0-88.082-18.908-118.189-49.416l-212.025-212.025 18.196-18.235 182.114 182.114c91.057 91.057 185.974 54.626 222.405 22.134 5.345-4.847 8.688-11.819 8.688-19.571 0-6.43-2.3-12.324-6.123-16.902-4.812-5.292-11.777-8.627-19.52-8.627-6.42 0-12.305 2.293-16.88 6.104-7.795 5.164-74.119 57.191-152.179-20.869l-180.775-180.815 183.375-184.674 212.047 212.007c31.193 32.532 49.428 74.161 49.428 119.69 0.004 0.41 0.006 0.894 0.006 1.378 0 46.269-18.907 88.123-49.417 118.256zM846.927 370.649c4.821-4.587 7.819-11.051 7.819-18.215s-2.998-13.628-7.808-18.206l-221.116-221.115c-4.607-4.783-11.046-7.773-18.184-7.837-7.175 0.058-13.629 3.049-18.24 7.83-4.816 4.593-7.806 11.049-7.806 18.203s2.99 13.61 7.788 18.186l221.115 221.154c4.597 4.8 11.058 7.783 18.215 7.783s13.618-2.983 18.207-7.774z" />
<glyph unicode="&#xe91c;" glyph-name="medicos" horiz-adv-x="1434" d="M1362.903-64.369l-1246.085-0.082c-64.84 0-116.49 52.675-116.49 118.825l1.597 143.524c4.301 72.335 20.234 145.285 77.537 210.207 38.994 44.278 96.625 74.957 138.977 93.184-0.239 1.002-0.525 2.515-0.765 4.044l-17.012 101.346-0.164 1.065-0.164 1.147c-0.224 1.513-0.4 3.364-0.487 5.238-1.104 8.349-1.743 17.874-1.766 27.544 0 128.601 102.482 233.213 228.475 233.213 25.149 0 49.275-4.26 71.885-12.001l0.41 1.024c7.66-2.621 15.196-5.652 22.487-9.052 37.601 62.628 105.144 104.694 182.272 104.694 83.64 0 156.017-49.357 191.16-120.955 31.374 23.215 70.826 37.168 113.535 37.192 108.263 0 196.327-89.866 196.327-200.376 0-8.069-0.573-16.343-1.802-25.846-0.008-1.062-0.082-2.099-0.219-3.116l-19.401-115.586c-0.181-1.152-0.409-2.147-0.698-3.116-3.122-18.899-8.82-36.004-16.772-51.777 19.354-4.457 134.574-42.632 193.68-109.683 63.283-71.762 73.114-156.221 73.646-258.54l0.041 0.041v-100.516c0-39.526-31.416-71.639-70.205-71.639zM302.367-22.876h363.889v256.041l-174.326 209.592c-30.188-12.534-84.050-39.117-120.627-80.609-51.282-58.163-63.939-127.345-65.823-224.87l-19.169-142.336c0-9.83 7.209-17.818 16.056-17.818zM513.843 580.751l-14.787 87.736-0.205 0.573v0.819l-7.086 41.902v1.475c-1.256 8.651-1.973 18.64-1.973 28.797 0 16.524 1.898 32.605 5.488 48.036l-0.32-0.812 0.205 0.041c0.328 1.516 0.737 2.908 1.106 4.383-20.37 10.078-44.354 15.974-69.714 15.974-90.767 0-164.577-75.366-164.577-167.977 0-6.717 0.492-13.558 1.516-21.586l0.082-0.532v-0.573l0.082-1.311 17.121-101.908c0.041-0.532 0.164-0.983 0.287-1.516l0.164-0.41 0.082-0.451c1.556-9.994 3.482-17.449 5.939-26.911 1.434-5.53 3.031-11.633 4.792-19.333l1.761-7.537-7.291-2.171c-4.301-1.27-106.004-32.113-159.58-92.938-51.937-58.941-62.3-126.689-62.669-223.724l-0.041-12.943 17.9-99.451c0-28.14 21.545-51.036 48.046-51.036h115.016c-0.865 3.908-1.398 8.423-1.474 13.050l1.105 130.31c0.451 122.716 13.722 208.527 80.2 283.894v0.041c54.723 62.054 159.375 105.349 207.094 119.562-8.388 16.367-14.758 35.358-18.109 55.372zM767.754 762.655c-52.347-41.533-114.196-62.546-184.115-62.546-15.77 0-29.614 1.065-40.591 2.253l16.671-115.261c0.328-1.475 0.614-2.99 0.819-4.506 10.281-77.046 71.844-135.004 143.196-135.004 71.434 0 132.956 57.958 143.196 134.799 0.217 1.737 0.505 3.253 0.876 4.734l13.173 107.578c-33.423 8.192-64.184 30.597-93.225 67.953zM703.611 402.371c-59.351 0-128.655 31.908-158.638 58.040l158.638-195.625 166.912 205.619c-43.336-40.182-89.047-68.035-166.912-68.035zM1105.469 141.21c-2.089 93.102-14.787 163.144-65.741 220.938-37.274 42.271-92.815 69.222-123.535 81.838l-175.227-210.821v-256.041h348.488c8.847 0 16.056 7.987 16.056 17.818l-0.041 146.268zM991.846 210.391h-43.213v-44.073c0.001-0.073 0.001-0.16 0.001-0.247 0-11.963-9.64-21.675-21.576-21.79-11.958 0.115-21.598 9.827-21.598 21.79 0 0.087 0.001 0.173 0.002 0.26v44.060h-43.213c-11.974 0.138-21.628 9.878-21.628 21.871 0 0.058 0 0.116 0.001 0.174 0 12.156 9.707 22.028 21.627 22.028h43.213v44.114c0 12.165 9.667 22.036 21.586 22.036s21.586-9.871 21.586-22.036v-44.114h43.213c11.919 0 21.627-9.871 21.627-22.036 0-0.049 0.001-0.107 0.001-0.165 0-11.994-9.653-21.733-21.614-21.871z" />
<glyph unicode="&#xe91d;" glyph-name="pencil" d="M763.853 959.795c-8.98-1.158-16.846-5.225-22.781-11.21l-665.603-665.756c-4.969-4.915-8.609-11.164-10.338-18.167l-64.107-281.916c-0.563-2.494-0.886-5.357-0.886-8.296 0-10.708 4.285-20.414 11.235-27.499 7.025-6.889 16.666-11.144 27.302-11.144 2.969 0 5.861 0.332 8.64 0.96l281.339 63.95c7.414 1.685 13.802 5.343 18.787 10.39l665.655 665.809c6.52 7.085 10.517 16.579 10.517 27.008s-3.997 19.923-10.543 27.036l-217.574 217.623c-7.045 7.061-16.786 11.429-27.547 11.429-1.442 0-2.867-0.078-4.268-0.231zM768.256 867.379l163.226-163.635-73.626-73.626-163.174 163.277 73.574 73.984zM640.256 739.328l163.226-163.635-470.426-470.579-163.226 163.277 470.426 470.938zM129.485 200.397l135.578-135.68-175.206-39.578 39.629 175.258z" />
<glyph unicode="&#xe91e;" glyph-name="cards" d="M997.795 544.582l-211.177-211.456v-309.667c-0.053-47.811-38.771-86.562-86.564-86.668h-612.735c-47.795 0.106-86.502 38.862-86.528 86.665v379.022c0 47.756 38.819 86.668 86.528 86.668h75.078l445.3 446.324c15.683 15.68 37.348 25.378 61.277 25.378s45.594-9.698 61.277-25.378l267.729-268.102c15.649-15.706 25.324-37.373 25.324-61.3 0-24.020-9.75-45.762-25.509-61.485zM57.53 23.273c0-0.014 0-0.030 0-0.047 0-16.452 13.337-29.789 29.789-29.789 0 0 0 0 0 0h612.957c0 0 0 0 0 0 16.452 0 29.789 13.337 29.789 29.789 0 0.016 0 0.033 0 0.049v256.603h-672.535v-256.605zM87.319 432.314c0 0 0 0 0 0-16.452 0-29.789-13.337-29.789-29.789 0-0.016 0-0.033 0-0.049v-65.72h672.303v65.722c0 0.028 0 0.060 0 0.093 0 16.426-13.316 29.743-29.743 29.743-0.016 0-0.033 0-0.049 0h-612.722zM690.176 895.116c-5.397 5.431-12.872 8.793-21.132 8.793s-15.734-3.362-21.13-8.791l-405.366-405.971h135.028l358.912 359.657-46.313 46.313zM957.905 627.014l-181.155 181.434-318.65-319.302h242.176c44.265 0 80.71-33.466 85.923-76.381l171.706 171.939c5.334 5.45 8.626 12.918 8.626 21.155s-3.292 15.705-8.631 21.16zM591.174 84.573h-82.339c-15.694 0-28.416 12.722-28.416 28.416s12.722 28.416 28.416 28.416h82.339c15.694 0 28.416-12.722 28.416-28.416s-12.722-28.416-28.416-28.416z" />
<glyph unicode="&#xe91f;" glyph-name="calendar2" horiz-adv-x="1106" d="M0.41-64v887.48h207.217v136.561h69.059v-136.561h552.55v136.561h69.059v-136.561h207.217v-887.48h-1105.101zM1064.55 755.2h-166.257v-68.239h-69.059v68.239h-552.55v-68.239h-69.059v68.239h-166.257v-122.47h1023.181v122.47zM1064.55 550.4h-1023.181v-572.989h1023.181v572.989zM279.47 247.583h-156.262v73.646h156.262v-73.646zM279.47 100.291h-156.262v73.646h156.262v-73.646zM513.884 394.834h-156.262v73.646h156.262v-73.646zM513.884 247.583h-156.262v73.646h156.262v-73.646zM513.884 100.291h-156.262v73.646h156.262v-73.646zM748.298 394.834h-156.262v73.646h156.262v-73.646zM748.298 247.583h-156.262v73.646h156.262v-73.646zM748.298 100.291h-156.262v73.646h156.262v-73.646zM982.712 394.834h-156.262v73.646h156.262v-73.646zM982.712 247.583h-156.262v73.646h156.262v-73.646zM982.712 100.291h-156.262v73.646h156.262v-73.646z" />
<glyph unicode="&#xe920;" glyph-name="detail" horiz-adv-x="819" d="M733.798-63.898h-648.141c-47.258 0-85.606 38.4-85.606 85.709v852.531c0 47.36 38.349 85.709 85.606 85.709h464.486c5.888 0 11.52-2.253 15.821-6.246l246.016-229.12c4.543-4.27 7.373-10.318 7.373-17.027 0-0.008 0-0.016 0-0.024v-685.823c0-47.309-38.298-85.709-85.555-85.709zM769.28 632.371c-55.91-0.666-149.299-2.611-188.16 0.256-39.014 2.816-65.126 26.010-69.325 65.69-5.12 48.794-0.717 158.464-0.461 211.507h-425.677c-19.584-0.029-35.452-15.897-35.482-35.479v-852.534c0-19.558 15.923-35.482 35.482-35.482h648.141c19.584 0.029 35.452 15.897 35.482 35.479v610.563zM597.76 294.195h-374.733c-22.938 0-22.938 51.354 0 51.354h374.733c22.886 0 22.886-51.354 0-51.354zM597.658 436.531h-375.859c-22.989 0-22.989 61.952 0 61.952h375.859c22.989 0 22.989-61.952 0-61.952zM221.696 200.909h374.579c22.938 0 22.938-59.392 0-59.392h-374.579c-22.886 0-22.886 59.392 0 59.392z" />
<glyph unicode="&#xe921;" glyph-name="filter" horiz-adv-x="1621" d="M1537.024 793.685h-1453.056c-0.127-0.001-0.277-0.001-0.428-0.001-46.036 0-83.384 37.199-83.625 83.178 0.242 46.025 37.589 83.224 83.625 83.224 0.15 0 0.301 0 0.451-0.001h1453.033c0.127 0.001 0.277 0.001 0.428 0.001 46.036 0 83.384-37.199 83.625-83.178-0.242-46.025-37.589-83.224-83.625-83.224-0.15 0-0.301 0-0.451 0.001zM336.725 533.931h947.541c44.544 0 80.64-38.485 80.64-85.931 0-47.36-36.096-85.845-80.64-85.845h-947.541c-44.459 0-80.469 38.485-80.469 85.845 0 47.445 36.011 85.931 80.469 85.931zM513.451 107.776h596.907c47.189 0 85.504-38.485 85.504-85.845 0-47.445-38.315-85.931-85.504-85.931h-596.907c-47.291 0.097-85.59 38.456-85.59 85.76 0 0.060 0 0.12 0 0.18 0 47.351 38.315 85.836 85.589 85.836z" />
<glyph unicode="&#xe922;" glyph-name="menos" horiz-adv-x="1621" d="M128 533.333h1365.333c51.2 0 85.333-34.133 85.333-85.333s-34.133-85.333-85.333-85.333h-1365.333c-51.2 0-85.333 34.133-85.333 85.333s34.133 85.333 85.333 85.333z" />
<glyph unicode="&#xe923;" glyph-name="sucess" horiz-adv-x="1111" d="M556.935 848.037c50.783 35.146 105.819 57.639 166.478 66.074 205.998 28.117 349.913-111.078 368.258-278.389 11.281-98.425-18.345-185.587-86.068-260.131-2.812-2.794-5.623-7.012-5.623-11.229-11.299-57.656-36.708-80.167-94.555-87.179-1.406 0-1.406-1.423-2.829-1.423-4.2-60.451-43.72-95.596-98.755-97.002 0-29.522-9.858-56.251-35.285-75.932-23.986-19.682-52.189-25.322-83.239-18.276-4.235-35.163-26.798-56.251-49.378-77.338-14.11-12.652-26.798-26.711-40.908-40.769-29.644-29.522-63.488-37.957-101.602-23.916-38.096 14.076-57.83 43.598-59.236 85.773 0 1.423 0 2.829-1.423 5.641-26.798-1.406-50.801 8.435-70.552 26.693-19.768 18.311-28.221 42.192-28.221 70.326-26.815 1.406-50.801 8.435-70.552 28.099-19.734 18.293-26.798 42.192-28.203 68.903-4.252 0-8.47 1.406-12.705 1.406-53.612 7.047-86.085 45.004-84.645 98.425 0 5.623-2.846 12.652-7.064 15.464-56.441 52.033-98.773 112.484-117.118 187.010-26.798 108.266-14.093 209.503 57.865 296.665 118.524 144.835 338.614 154.659 478.277 25.305 4.252-1.388 5.675-2.794 7.081-4.2zM589.373 188.598c2.829 0 4.235-1.406 5.658-1.406 31.032-1.406 55.018-14.058 73.364-36.552 5.641-7.047 12.687-12.67 21.174-16.887 21.157-12.635 47.954-4.2 60.659 16.887 11.281 19.682 8.47 40.769-11.281 60.451l-189.093 188.416c-2.794 2.812-7.047 7.029-9.858 9.823-8.452 9.841-7.064 22.511 1.406 30.946 8.452 8.435 21.174 9.858 31.050 1.423 4.217-2.846 7.047-7.029 9.876-9.858l190.481-189.822c12.687-12.652 26.798-19.682 45.143-15.447 18.328 4.2 29.627 15.447 33.861 33.74 5.641 18.276-1.423 32.317-14.11 44.987-66.317 64.686-131.211 130.76-197.528 195.445-11.299 11.247-12.705 25.305-2.829 35.146 9.876 9.858 23.986 8.435 35.267-2.812 38.114-37.957 76.21-74.509 114.289-112.484l84.68-84.367c23.969-22.493 57.83-18.276 73.346 8.435 11.299 18.293 7.064 39.381-9.876 57.656-90.286 94.208-182.012 185.587-273.72 276.966-2.52 2.58-5.286 4.899-8.266 6.927-3.016-2.692-4.439-5.521-7.251-8.315-33.861-33.74-66.317-67.497-101.584-99.814-71.975-66.091-182.012-54.862-244.111 22.476 73.381 71.715 146.744 144.835 220.125 216.533-118.524 119.53-328.739 102.643-423.276-35.146-59.271-85.773-60.676-178.575-25.392-272.766 18.328-49.204 49.378-91.414 90.286-126.542l71.975 71.697c25.392 25.305 55.018 32.334 88.88 22.511 33.861-9.841 56.441-32.351 64.894-66.091 2.829-8.435 2.829-18.276 4.252-26.711 26.78 0 50.783-8.452 69.129-28.117 19.734-19.699 26.815-43.581 28.203-68.903 67.74-2.829 101.602-49.221 100.178-98.425zM985.834 423.407s1.423 2.794 2.846 2.794c2.829 4.217 5.641 7.047 8.452 11.264 40.908 60.468 59.253 126.559 47.989 199.645-14.128 90.008-59.288 160.317-141.104 202.492-104.413 54.81-246.923 36.552-337.226-46.41-67.705-61.891-129.788-127.948-196.105-192.633v-2.794c42.331-30.946 105.819-23.899 146.744 15.464 38.096 36.569 74.769 74.509 112.866 112.484 19.751 19.682 29.627 19.682 49.378 0l141.086-140.618c53.63-52.016 108.648-106.86 165.072-161.688zM393.268 337.634c-5.658-2.812-15.534-4.217-22.58-9.841-27.089-24.192-51.958-48.973-75.421-75.044-16.287-19.164-13.476-44.452 4.852-61.339 16.939-16.87 43.737-16.87 60.694-1.406 24.514 23.043 47.514 45.966 69.831 69.541 14.814 14.826 17.643 31.696 9.173 49.972-8.452 16.87-22.58 25.305-46.549 28.117zM545.636 191.41c-1.406 0-2.829 1.406-2.829 1.406 0 19.682-9.876 33.74-28.203 40.769-18.345 8.435-35.285 5.623-49.395-8.435-23.076-21.608-44.691-43.157-65.618-65.361-20.433-20.394-20.433-47.105-3.511-65.398 19.751-19.682 46.566-19.682 66.3 0 22.618 21.141 43.786 42.226 64.27 63.963 7.705 10.563 11.94 23.216 18.986 33.057zM477.913 31.128c2.812-19.699 14.11-36.569 31.032-43.598 18.363-7.029 35.285-4.217 49.395 9.841 22.58 22.493 46.566 45.004 69.129 68.903 18.345 18.276 16.939 45.004 0 61.857-18.328 18.276-45.143 19.699-63.488 1.423-24.028-22.569-46.565-45.039-68.418-68.162-7.757-9.176-11.992-20.44-17.65-30.263zM184.441 323.575c2.812-21.070 12.687-35.146 29.627-43.598 18.345-8.435 35.267-5.606 49.378 8.452 23.986 22.493 46.583 46.392 69.146 68.903 18.328 18.258 16.939 44.987 0 61.839-18.345 18.293-45.16 19.682-63.488 1.423-22.58-22.493-46.566-45.004-67.723-68.903-8.487-7.029-12.722-18.276-16.939-28.117z" />
<glyph unicode="&#xe924;" glyph-name="oferta" d="M1024.341 444.501l-79.147-117.504 7.723-140.971-124.16-62.635-51.2-103.424c-7.765-14.037-21.717-23.467-37.248-21.931l-113.323 6.315-94.677-62.677c-5.627-3.946-12.617-6.306-20.158-6.306-0.548 0-1.094 0.012-1.636 0.037-0.388-0.025-0.934-0.037-1.482-0.037-7.541 0-14.531 2.36-20.272 6.382l-94.564 62.602-113.323-6.315c-15.488 0-31.019 7.893-37.248 21.931l-51.2 103.424-124.16 62.635 7.765 140.971-76.075 117.504 77.611 115.883-7.765 140.971 124.16 62.677 51.243 103.381c7.765 14.080 21.717 23.467 37.248 21.931l113.28-6.315 116.395 76.8 116.437-75.179 113.28 6.229c15.531 0 31.061-7.851 37.248-21.931l51.243-103.381 124.16-62.635-7.765-140.971 77.611-117.461zM539.392 191.232h215.851v266.624h-215.851v-266.624zM298.112 191.232h215.893v266.624h-215.893v-266.624zM260.011 584.832v-101.589h253.995v101.589h-253.995zM590.208 749.867c-24.832 0-46.805-12.075-60.757-30.549-14.285 25.92-41.405 43.202-72.567 43.264-45.542-0.121-82.424-36.988-82.569-82.503 0.121-45.562 37.012-82.453 82.548-82.574h133.345c42.028 0.121 76.063 34.171 76.16 76.193-0.121 42.023-34.147 76.048-76.148 76.169zM793.344 584.832h-253.952v-101.589h253.952v101.589zM590.208 644.523h-29.184v29.184c0 16.171 12.971 29.184 29.184 29.184 16.171 0 29.141-13.013 29.141-29.184 0-0.051 0.001-0.111 0.001-0.171 0-16.024-12.99-29.013-29.013-29.013-0.045 0-0.090 0-0.135 0zM426.923 680.064c0 16.597 13.355 29.867 29.952 29.867s29.909-13.269 29.909-29.867v-29.909h-29.909c-0.038 0-0.083 0-0.128 0-16.471 0-29.824 13.353-29.824 29.824 0 0.030 0 0.060 0 0.090z" />
<glyph unicode="&#xe925;" glyph-name="addperson" horiz-adv-x="806" d="M574.095-64c-112.858 0-207.066 84.052-227.513 194.929h-266.828c-41.296 0-76.011 31.895-79.033 72.637-4.986 67.013 13.849 138.794 51.687 196.91 36.679 56.387 92.647 100.369 157.595 123.837l30.586 11.046-31.173 16.753c-1.494 0.789-3.005 1.578-4.482 2.468-66.543 39.030-107.873 110.995-107.873 187.828 0 76.766 41.329 148.698 107.856 187.778 31.544 18.749 69.546 29.831 110.136 29.831 40.579 0 78.57-11.075 111.117-30.368 65.517-38.526 106.863-110.474 106.863-187.241 0-76.85-41.329-148.816-107.671-187.745l-33.423-18.281 35.639-12.741c3.811-1.326 7.403-2.568 10.962-4.079 52.927-23.169 96.821-58.523 129.525-102.667 2.403-0.824 4.199-0.723 6.029-0.723 127.748 0 231.693-107.705 231.693-240.086s-103.944-240.086-231.693-240.086zM403.238 590.42c52.379 31.255 86.955 87.565 87.124 151.964 0 62.22-33.389 120.437-87.107 151.946-25.785 15.125-56.27 23.132-88.165 23.132s-62.414-8.007-88.282-23.149c-52.333-31.254-86.881-87.524-87.074-151.877 0-62.257 33.389-120.49 87.124-152.016 25.106-14.847 55.328-23.62 87.599-23.62 0.211 0 0.421 0 0.632 0.001 31.376 0 61.861 8.175 88.149 23.619zM421.435 481.288c-30.173 13.233-65.341 20.934-102.308 20.934-0.233 0-0.466 0-0.699-0.001-92.006 0-180.171-47.591-230.045-124.206-32.969-50.663-49.404-113.144-45.090-171.394 1.377-18.684 17.727-33.91 36.461-33.91h262.732c-0.017 1.125-0.084 2.249-0.084 3.374 0 113.026 75.776 207.99 177.437 233.388-26.629 30.475-59.48 54.804-96.645 71.125zM595.481 376.27c-6.416 0.78-13.844 1.224-21.376 1.224-9.742 0-19.311-0.744-28.652-2.179-93.114-13.801-165.734-97.87-165.734-199.229 0-1.142 0.067-2.283 0.084-3.425 0.235-14.571 1.964-28.756 5.053-42.404 20.077-89.054 97.28-155.598 189.239-155.598 107.184 0 194.375 90.364 194.375 201.426 0 103.575-75.843 189.104-172.989 200.184zM652.204 145.954h-42.051v-43.629c0-16.636-13.077-30.166-29.125-30.166-16.065 0-29.125 13.53-29.125 30.166v43.629h-42.051c-16.065 0-29.142 13.547-29.142 30.183 0 16.653 13.077 30.183 29.142 30.183h42.051v43.512c0 16.653 13.060 30.183 29.125 30.183 16.048 0 29.125-13.53 29.125-30.183v-43.512h42.051c16.048 0 29.108-13.53 29.108-30.183 0-16.636-13.060-30.183-29.108-30.183z" />
<glyph unicode="&#xe926;" glyph-name="chat" horiz-adv-x="1225" d="M1130.416 116.184l34.013-140.228c1.827-3.694 2.791-7.891 2.791-12.168 0-0.012 0-0.026 0-0.040 0-15.272-12.346-27.66-27.601-27.728h-1.171c-5.744 0.055-11.058 1.849-15.453 4.879l-138.026 93.906c-33.511-6.947-79.772-12.047-110.070-12.047-192.873 0-349.806 126.996-349.806 283.066s156.933 283.046 349.806 283.046c192.914 0 349.887-126.976 349.887-283.046 0-86.136-28.311-143.32-94.369-189.641zM874.938 533.293c-162.194 0-294.109-102.039-294.109-227.469 0-125.45 131.915-227.509 294.109-227.509 30.118 0 80.073 6.044 109.086 13.192 2.035 0.538 4.371 0.847 6.78 0.847 5.868 0 11.308-1.835 15.776-4.962l88.176-59.996-22.93 94.67c-0.506 1.978-0.796 4.249-0.796 6.588 0 9.905 5.204 18.594 13.028 23.482 62.801 38.859 85.028 79.056 85.068 153.688 0 125.43-131.976 227.469-294.189 227.469zM966.355 604.391l-7.288 1.526-1.707 7.248c-39.354 168.819-227.328 291.358-446.986 291.358-250.719 0-454.676-159.182-454.676-354.826 0-107.159 61.882-209.458 165.567-273.569 11.123-6.907 15.962-20.821 11.465-33.129l-49.112-134.626 136.614 102.019c6.686 5.020 15.199 6.726 23.351 4.739 44.373-10.983 120.712-20.239 166.731-20.239 1.064 0 2.108 0.060 3.172 0.1 1.426 0.060 2.851 0.141 4.277 0.141h7.228l3.213-6.425c5.18-10.381 11.144-20.641 17.689-30.399l11.585-17.308-28.471-1.104c-6.204-0.301-12.449-0.562-18.693-0.562-45.638 0-117.74 8.192-167.053 18.854l-201.126-150.126c-4.578-3.472-10.371-5.562-16.652-5.562-0.012 0-0.024 0-0.035 0-5.861 0-11.563 1.847-16.462 5.381-6.925 5.147-11.362 13.303-11.362 22.495 0 3.367 0.595 6.594 1.686 9.584l73.525 201.373c-108.403 74.792-172.835 189.42-172.835 308.324 0 226.284 228.954 410.363 510.374 410.363 251.181 0 468.028-150.809 504.39-350.75l3.373-18.593-18.131 5.361c-7.966 2.502-19.267 5.387-30.732 7.831z" />
<glyph unicode="&#xe927;" glyph-name="book" horiz-adv-x="819" d="M795.873 750.49c13.865 0.246 23.572-10.076 23.409-23.265v-767.877c0-12.186-11.141-23.265-23.409-23.265h-690.565c-57.938 0-105.329 47.084-105.329 104.714v791.142c0 68.936 59.412 127.98 128.758 127.98h667.136c12.37 0.184 23.409-10.977 23.409-23.286 0-12.288-11.039-23.429-23.409-23.245-40.878 0-81.92-40.796-81.92-81.449s41.042-81.449 81.92-81.449zM697.856 913.388h-569.119c-40.899 0-81.94-40.796-81.94-81.449s41.042-81.449 81.94-81.449h569.119c-18.985 22.385-30.72 50.954-30.72 81.449 0 30.515 11.735 59.064 30.72 81.449zM397.926 703.959v-234.516l80.097 55.624c3.73 2.606 8.359 4.164 13.353 4.164s9.623-1.558 13.429-4.215l80.39-55.942v234.885h-187.269zM632.013 703.959v-279.224c0.061-4.915-1.434-9.748-4.301-13.742-4.318-5.976-11.267-9.82-19.114-9.82-5.061 0-9.748 1.599-13.584 4.319l-103.453 71.938-103.875-71.987c-3.891-2.621-8.479-4.014-13.189-4.014-0.012 0-0.027 0-0.041 0-12.88 0-23.324 10.43-23.347 23.304v279.227h-222.372c-30.7 0-59.433 11.653-81.94 30.536v-693.699c0-32.645 25.702-58.184 58.511-58.184h667.156v721.347h-140.452zM564.388 813.179h-410.706c-31.498 0.717-31.498 45.363 0 46.060h410.706c31.355-0.799 31.355-45.24 0-46.060z" />
<glyph unicode="&#xe928;" glyph-name="assistant" horiz-adv-x="881" d="M445.307-64c-2.052 0-6.156 0-8.208 0-252.409 43.094-437.098 258.565-437.098 513.026v412.473c0 14.365 10.261 24.625 24.625 24.625h217.523c59.511 36.938 125.178 63.615 194.95 73.876 2.052 0 6.156 0 8.208 0 69.772-12.313 135.439-36.938 194.95-73.876v0h217.523c14.365 0 24.625-10.261 24.625-24.625v-412.473c0-254.461-184.689-469.932-437.098-513.026zM833.154 836.874h-199.054c-4.104 0-10.261 2.052-14.365 4.104-112.866 73.876-178.533 71.824-178.533 71.824v0c-63.615-10.261-123.126-34.886-178.533-71.824-4.104-2.052-8.208-4.104-14.365-4.104h-199.054v-387.848c0-227.784 164.168-422.733 391.952-463.776v0 0c225.731 38.99 391.952 233.94 391.952 463.776v387.848zM547.912 412.088h-71.824v-71.824c0-20.521-16.417-34.886-34.886-34.886-20.521 0-34.886 16.417-34.886 34.886v71.824h-71.824c-20.521 0-34.886 16.417-34.886 34.886 0 20.521 16.417 34.886 34.886 34.886h71.824v71.824c0 20.521 16.417 34.886 34.886 34.886 20.521 0 34.886-16.417 34.886-34.886v0-71.824h71.824c20.521 0 34.886-16.417 34.886-34.886 2.052-18.469-14.365-34.886-34.886-34.886z" />
<glyph unicode="&#xe929;" glyph-name="recalcular" horiz-adv-x="1210" d="M669.649-64l-1.443-0.047c-0.405-0.015-0.881-0.024-1.358-0.024-9.936 0-18.991 3.774-25.809 9.967-7.427 6.737-12.118 16.435-12.21 27.231 0 22.032 17.548 38.696 40.82 38.696 252.928 0 458.659 195.025 458.659 434.688 0 240.593-205.731 436.317-458.659 436.317s-458.659-195.025-458.659-434.735v-99.98l70.377 70.237c7.212 7.025 17.076 11.358 27.952 11.358 0.073 0 0.146 0 0.219-0.001 10.927 0 21.865-3.91 29.312-10.519 7.637-7.086 12.429-17.148 12.521-28.329-0.231-10.855-4.705-20.606-11.822-27.711l-154.485-147.689-171.241 147.735c-17.175 15.453-18.339 39.471-2.607 55.994 13.405 14.15 36.399 16.012 54.691 4.468l62.697-39.61 0.745 71.354c3.072 278.342 245.434 504.739 540.3 504.739 297.891 0 540.3-229.702 540.3-512.047 0-282.391-242.409-512.093-540.3-512.093zM463.593 350.115l334.196 316.788c3.037 2.866 6.978 4.803 11.352 5.343 0.709 0.076 1.417 0.113 2.134 0.113 5.339 0 10.194-2.076 13.8-5.466l109.232-103.554c3.283-3.299 5.312-7.847 5.312-12.87s-2.029-9.571-5.313-12.871l-334.149-316.788c-2.527-2.425-5.718-4.177-9.273-4.957l-141.534-30.511c-1.25-0.271-2.685-0.426-4.157-0.426-5.306 0-10.141 2.018-13.779 5.328-3.447 3.26-5.603 7.887-5.603 13.017 0 1.42 0.165 2.801 0.477 4.125l32.092 133.929c0.922 3.491 2.744 6.474 5.204 8.788zM893.393 550.4l-81.967 77.824-36.957-35.188 81.92-77.684 37.004 35.049zM592.943 265.495l236.172 223.977-81.967 77.824-236.172-224.070 81.967-77.731zM558.778 246.319l-68.049 64.512-19.875-83.363 87.924 18.851z" />
<glyph unicode="&#xe92a;" glyph-name="refresh2" d="M731.648 619.918h145.92c-69.461 154.283-217.145 252.871-381.781 252.871-192.114 0-359.652-134.713-407.438-327.566l-2.56-10.411h-86.016l3.641 16.839c51.2 236.658 258.731 408.462 493.454 408.462 183.865 0 351.004-102.229 440.149-264.875v136.761h84.651v-299.406h-290.020v87.324zM292.068 276.309h-145.92c69.404-154.283 217.088-252.814 381.724-252.814 192.91 0 360.448 134.656 407.438 327.509l2.56 10.468h86.016l-3.641-16.896c-51.2-236.658-258.731-408.462-493.454-408.462-183.865 0-350.948 102.229-440.149 264.932v-136.818h-84.594v299.463h290.020v-87.381z" />
<glyph unicode="&#xe92b;" glyph-name="correct" horiz-adv-x="1205" d="M1186.153 861.094l-730.895-793.118c-8.285-9.228-20.254-15.006-33.571-15.006-3.494 0-6.896 0.398-10.161 1.151 0.785-12.226-1.203-24.575-7.527-35.297-15.3-25.961-45.417-32.346-67.343-14.216l-317.259 262.505c-21.865 18.131-27.287 53.85-11.987 79.872 15.3 25.961 45.417 32.346 67.343 14.216l297.623-246.242c1.265 13.252 5.963 26.263 15.119 36.201l730.895 793.118c20.179 21.865 51.742 21.022 70.415-1.988 8.289-10.665 13.288-24.244 13.288-38.991 0-16.212-6.042-31.013-15.998-42.274z" />
<glyph unicode="&#xe92c;" glyph-name="left-arrow" horiz-adv-x="534" d="M117.983 482.46l406.172 418.905c13.223 13.312 13.802 34.193 1.425 50.977-5.885 4.932-13.539 7.927-21.892 7.927-0.13 0-0.259-0.001-0.389-0.002-0.127 0.002-0.301 0.004-0.474 0.004-9.294 0-17.719-3.723-23.865-9.759l-468.631-477.802c-5.981-6.209-9.666-14.667-9.666-23.986 0-0.192 0.002-0.384 0.005-0.575 0-9.543 3.428-18.225 9.661-24.503l465.341-477.896c6.189-6.233 14.826-9.661 24.22-9.661 0.18-0.003 0.392-0.005 0.604-0.005 9.254 0 17.633 3.744 23.706 9.801 5.981 6.234 9.664 14.715 9.664 24.056 0 0.183-0.001 0.365-0.004 0.547 0.001 0.077 0.002 0.201 0.002 0.325 0 9.351-3.682 17.842-9.675 24.103l-406.204 418.981-13.846 13.802c-5.247 5.239-8.493 12.48-8.493 20.48s3.246 15.241 8.493 20.48l13.847 13.802z" />
<glyph unicode="&#xe92d;" glyph-name="gift" d="M107.781 421.059v-431.16h377.279v431.16h-377.279zM538.941 421.059v-431.16h377.279v431.16h-377.279zM970.1 421.059v-485.059h-916.201v485.059h-53.9v323.361h163.84l-2.16 26.959c0 104.001 84.62 188.621 188.639 188.621 68.44 0 128.801-36.641 161.68-91.62 33.487 55.259 93.296 91.62 161.599 91.62 0.029 0 0.058 0 0.086 0 104.015 0 188.635-84.62 188.635-188.621l-2.16-26.959h163.84v-323.361h-53.9zM53.9 690.52v-215.561h431.16v215.561h-431.16zM970.1 474.959v215.561h-431.16v-215.561h431.16zM805.72 744.42l2.7 26.959c-0.032 74.402-60.338 134.708-134.737 134.74-74.405-0.032-134.711-60.338-134.743-134.737v-26.962h266.78zM485.059 744.42v26.959c-0.032 74.402-60.338 134.708-134.737 134.74-74.405-0.032-134.711-60.338-134.743-134.737l2.7-26.962h266.78z" />
<glyph unicode="&#xe92e;" glyph-name="arrowup" horiz-adv-x="1955" d="M911.546 739.561l-799.651-763.252c-25.507-24.855-65.257-25.879-97.28-2.7-9.379 10.972-15.086 25.328-15.086 41.016 0 0.275 0.002 0.549 0.005 0.823 0 17.832 6.516 33.937 18.618 45.759l912.012 880.64c11.894 11.248 27.987 18.164 45.695 18.164 0.43 0 0.859-0.004 1.287-0.012 18.182 0.001 34.659-6.422 46.574-18.152l912.291-874.496c11.392-11.332 18.443-27.020 18.443-44.355 0-0.41-0.004-0.82-0.012-1.228 0.001-17.626-6.515-33.824-18.617-45.553-11.972-11.303-28.161-18.251-45.973-18.251-0.3 0-0.599 0.002-0.897 0.006-0.186-0.003-0.46-0.005-0.734-0.005-17.835 0-34.047 6.947-46.079 18.282l-799.617 763.314-26.252 26.065c-10.115 9.841-23.945 15.909-39.191 15.909s-29.076-6.068-39.204-15.922l-26.332-26.053z" />
<glyph unicode="&#xe92f;" glyph-name="arrowdown" horiz-adv-x="1955" d="M1043.363 156.532l799.651 763.345c25.414 24.855 65.257 25.879 97.187 2.7 9.434-10.953 15.18-25.317 15.18-41.023 0-0.305-0.002-0.61-0.006-0.914 0.001-17.641-6.516-33.932-18.711-45.662l-911.919-880.64c-11.878-11.303-27.987-18.257-45.719-18.257-0.422 0-0.842 0.004-1.262 0.012-0.327-0.009-0.786-0.014-1.246-0.014-17.639 0-33.652 6.959-45.445 18.28l-912.175 874.382c-11.392 11.375-18.439 27.098-18.439 44.467 0 0.338 0.003 0.675 0.008 1.012-0.001 17.729 6.516 34.020 18.524 45.75 11.999 11.249 28.185 18.158 45.984 18.158 0.296 0 0.591-0.002 0.886-0.006 18.015 0 35.050-6.609 46.873-18.152l799.651-763.439 26.252-25.972c10.115-9.841 23.945-15.909 39.191-15.909s29.076 6.068 39.204 15.922l26.332 25.96z" />
<glyph unicode="&#xe930;" glyph-name="print" d="M959.933 191.955h-128v-192.022c0-35.306-28.627-63.978-64.022-63.978h-511.955c-35.334 0-63.978 28.644-63.978 63.978v0 192.022h-128c-35.359 0-64.022 28.664-64.022 64.022v0 384c0 35.306 28.672 63.978 64.022 63.978h895.955c35.35 0 63.978-28.672 63.978-63.978v-384c0-35.395-28.627-64.022-63.978-64.022zM767.911 383.933h-511.955v-384h511.955v384zM895.911 639.978c-35.339-0.025-63.978-28.679-63.978-64.022 0-35.359 28.664-64.022 64.022-64.022 0.016 0 0.031 0 0.047 0h-0.002c35.339 0.025 63.978 28.679 63.978 64.022 0 35.359-28.664 64.022-64.022 64.022-0.016 0-0.031 0-0.047 0h0.002zM703.933 255.978h-383.955v63.978h383.955v-63.978zM639.911 127.978h-319.933v63.978h319.933v-63.978zM767.911 895.933h-511.955v-128h-63.978v128c0 35.35 28.627 63.978 63.978 63.978h511.955c35.395 0 64.022-28.627 64.022-63.978v-128h-64.022v128z" />
<glyph unicode="&#xe931;" glyph-name="timer" d="M512 960c-282.624 0-512-225.28-512-512 0-282.624 229.376-512 512-512s512 229.376 512 512c0 286.72-229.376 512-512 512zM512 873.984c237.568 0 425.984-188.416 425.984-425.984 0-233.472-192.512-425.984-425.984-425.984-237.568 0-425.984 192.512-425.984 425.984 0 237.568 188.416 425.984 425.984 425.984zM462.848 378.368c4.096-4.096 12.288-8.192 20.48-12.288 36.864-16.384 81.92 0 102.4 36.864h266.24c24.576 0 40.96 20.48 40.96 45.056 0 20.48-20.48 40.96-40.96 40.96h-266.24c-8.192 12.288-20.48 24.576-32.768 32.768v180.224c0 24.576-20.48 40.96-40.96 40.96-24.576 0-40.96-16.384-40.96-40.96v-184.32c-24.576-16.384-40.96-40.96-40.96-73.728-4.096-24.576 12.288-49.152 32.768-65.536zM512 488.96c12.288 0 24.576-4.096 28.672-12.288 8.192-8.192 12.288-20.48 12.288-28.672 0-12.288-4.096-20.48-12.288-28.672-4.096-4.096-8.192-8.192-16.384-8.192-4.096-4.096-12.288-4.096-16.384-4.096s-12.288 0-16.384 4.096c-4.096 4.096-8.192 4.096-12.288 8.192s-8.192 8.192-8.192 12.288c-4.096 4.096-4.096 12.288-4.096 16.384 0 8.192 0 12.288 4.096 16.384 0 4.096 4.096 8.192 8.192 12.288s8.192 8.192 12.288 8.192 16.384 4.096 20.48 4.096z" />
<glyph unicode="&#xe932;" glyph-name="lazer" horiz-adv-x="1291" d="M1033.009 587.636l-135.132 135.132-123.12-123.12c39.038-39.038 39.038-105.103 0-147.144-39.038-39.038-105.103-39.038-147.144 0l-123.12-123.12 135.132-135.132c-39.038-39.038-39.038-105.103 0-147.144 39.038-39.038 105.103-39.038 147.144 0l111.109-111.109 123.12 123.12c-39.038 39.038-39.038 105.103 0 147.144 39.038 39.038 105.103 39.038 147.144 0l123.12 123.12-111.109 111.109c39.038 39.038 39.038 105.103 0 147.144-42.041 42.041-108.106 42.041-147.144 0zM471.46 140.199c-24.023 0-45.044 6.006-66.065 18.018-24.023 12.012-42.041 33.032-51.050 57.056l-192.188-51.050-60.059 225.22 24.023 6.006c42.041 12.012 69.067 57.056 57.056 99.097s-57.056 69.067-99.097 57.056l-24.023-6.006-60.059 225.22 192.188 51.050c-3.003 27.026 3.003 51.050 18.018 75.073 18.018 30.029 45.044 51.050 81.079 60.059 63.062 15.015 126.123-15.015 153.15-69.067l159.155 42.041 60.059-225.22-24.023-6.006c-42.041-12.012-69.067-57.056-57.056-99.097 6.006-21.021 18.018-39.038 39.038-48.047 18.018-12.012 42.041-15.015 60.059-9.009l24.023 6.006 60.059-225.22-159.155-42.041c3.003-27.026-3.003-51.050-18.018-75.073-18.018-30.029-45.044-51.050-81.079-60.059-12.012-3.003-24.023-6.006-36.035-6.006zM387.378 278.334l6.006-24.023c6.006-21.021 18.018-39.038 39.038-48.047 18.018-12.012 39.038-15.015 60.059-9.009s39.038 18.018 48.047 39.038c12.012 18.018 15.015 42.041 9.009 60.059l-6.006 24.023 159.155 42.041-33.032 129.126c-27.026-3.003-51.050 3.003-75.073 18.018-30.029 18.018-51.050 45.044-60.059 81.079-15.015 63.062 15.015 126.123 69.067 153.15l-33.032 129.126-159.155-42.041-6.006 24.023c-12.012 42.041-57.056 69.067-99.097 57.056-21.021-9.009-39.038-24.023-51.050-42.041s-15.015-42.041-9.009-60.059l6.006-24.023-192.188-51.050 33.032-129.126c63.062 3.003 120.117-36.035 135.132-99.097s-15.015-126.123-69.067-153.15l33.032-129.126 195.191 54.053z" />
<glyph unicode="&#xe933;" glyph-name="seguros-de-saude" horiz-adv-x="1103" d="M162.304 26.368h-138.24c-12.8 0-23.040 7.68-23.040 23.040v414.72c0 12.8 7.68 23.040 23.040 23.040h2.56c46.080-2.56 204.8-15.36 245.76-53.76 5.12-5.12 7.68-10.24 7.68-17.92-10.24-117.76-89.6-360.96-92.16-373.76-5.12-7.68-12.8-15.36-25.6-15.36zM49.664 72.448h97.28c17.92 53.76 71.68 232.96 84.48 332.8-28.16 12.8-107.52 25.6-181.76 33.28v-366.080zM617.984-63.232c-33.28 2.56-64 7.68-94.72 23.040l-343.040 115.2c-12.8 5.12-20.48 15.36-15.36 28.16s15.36 20.48 28.16 15.36v0l343.040-115.2c84.48-30.72 89.6-33.28 281.6 46.080l227.84 102.4c-25.6 30.72-66.56 43.52-104.96 35.84l-176.64-43.52c-12.8-2.56-23.040 5.12-28.16 17.92-2.56 10.24 5.12 23.040 15.36 25.6h2.56l176.64 43.52c69.12 17.92 140.8-15.36 171.52-79.36 7.68-10.24 2.56-23.040-7.68-28.16l-2.56-2.56-253.44-115.2c-120.32-48.64-174.080-69.12-220.16-69.12zM666.624 123.648c-10.24 0-20.48 0-30.72 2.56l-197.12 38.4c-10.24 2.56-20.48 12.8-17.92 25.6v0 0c2.56 10.24 12.8 20.48 23.040 17.92h2.56l197.12-38.4c17.92-5.12 35.84-2.56 51.2 2.56l43.52 10.24c-2.56 40.96-23.040 61.44-74.24 74.24l-412.16 92.16c-12.8 2.56-20.48 12.8-17.92 25.6s12.8 20.48 25.6 17.92v0 0l414.72-92.16c76.8-20.48 110.080-58.88 110.080-130.56v-7.68c0-10.24-7.68-20.48-17.92-23.040l-61.44-15.36c-12.8 0-25.6 0-38.4 0zM704 960c-46.080 0-74.24-23.040-92.16-43.52-17.92 20.48-46.080 43.52-92.16 43.52-79.36 0-133.12-71.68-133.12-138.24 0-97.28 192-227.84 212.48-243.2 7.68-5.12 15.36-5.12 23.040 0 20.48 15.36 212.48 145.92 212.48 243.2 2.56 66.56-51.2 138.24-130.56 138.24zM691.2 911.36c0 0 97.28 5.12 84.48-115.2z" />
<glyph unicode="&#xe934;" glyph-name="tem-duvidas" horiz-adv-x="1098" d="M949.945 216.898l53.626-219.611c2.554-5.107 5.107-12.768 5.107-17.875 0-22.983-20.429-43.411-43.411-43.411h-2.554c-7.661 0-17.875 2.554-22.983 7.661l-217.057 145.556c-53.626-10.214-125.127-17.875-173.646-17.875-303.88 0-549.027 199.182-549.027 444.329s245.147 444.329 549.027 444.329 549.027-199.182 549.027-444.329c0-135.342-43.411-224.718-148.11-298.773zM549.027 870.623c-255.362 0-462.204-160.878-462.204-357.506s206.843-357.506 462.204-357.506c48.519 0 125.127 10.214 171.092 20.429 12.768 2.554 25.536 0 35.751-5.107l137.895-94.484-35.751 148.11c-5.107 17.875 2.554 38.304 20.429 48.519 99.591 61.287 132.788 125.127 132.788 240.040 0 199.182-206.843 357.506-462.204 357.506zM533.706 671.441c-15.322 0-30.643-2.554-45.965-5.107-15.322-5.107-30.643-10.214-45.965-17.875l-22.983 63.84c17.875 10.214 35.751 17.875 56.18 22.983s43.411 7.661 66.394 7.661c28.090 0 48.519-2.554 66.394-10.214s30.643-17.875 40.858-28.090 17.875-22.983 20.429-38.304c5.107-12.768 5.107-25.536 5.107-38.304 0-15.322-2.554-28.090-7.661-40.858s-12.768-22.983-20.429-33.197-17.875-20.429-28.090-30.643c-10.214-10.214-20.429-17.875-28.090-28.090s-15.322-20.429-20.429-30.643c-5.107-10.214-7.661-22.983-7.661-35.751 0-2.554 0-5.107 0-7.661s0-5.107 0-7.661h-71.501c0 5.107-2.554 10.214-2.554 15.322s0 10.214 0 15.322c0 15.322 2.554 28.090 7.661 40.858s10.214 22.983 17.875 33.197c7.661 10.214 15.322 20.429 25.536 28.090 7.661 7.661 17.875 17.875 25.536 25.536s12.768 17.875 17.875 25.536c5.107 10.214 7.661 17.875 7.661 30.643 0 15.322-5.107 28.090-15.322 35.751-5.107 2.554-20.429 7.661-40.858 7.661zM584.778 306.274c0-15.322-5.107-28.090-15.322-38.304s-22.983-15.322-38.304-15.322-28.090 5.107-38.304 15.322-15.322 22.983-15.322 38.304 5.107 28.090 15.322 38.304 22.983 15.322 38.304 15.322 28.090-5.107 38.304-15.322c10.214-10.214 15.322-22.983 15.322-38.304z" />
<glyph unicode="&#xe935;" glyph-name="medico2" horiz-adv-x="801" d="M705.625 213.86c-0.049 0-0.108 0-0.166 0-30.862 0-58.323 14.558-75.892 37.181l-0.163 0.218c-17.319-17.764-14.87-93.006-14.87-93.006s22.795-222.253-188.639-222.253c-211.434 0-188.639 209.608-188.639 209.608v242.911h-42.296c-188.683 61.885-195.183 293.665-195.183 293.665v155.603c0 84.146 60.193 82.543 60.193 82.543l26.001 1.603v-0.979c1.647 0.312 3.161 0.979 4.897 0.979h48.796v9.528c0.225 15.81 13.094 28.541 28.936 28.541 0.126 0 0.252-0.001 0.378-0.002h-0.019c0.093 0.001 0.204 0.002 0.314 0.002 15.842 0 28.711-12.73 28.936-28.519v-76.242c-0.2-15.829-13.079-28.585-28.937-28.585-0.11 0-0.221 0.001-0.331 0.002h0.017c-0.107-0.001-0.232-0.002-0.358-0.002-15.858 0-28.737 12.755-28.937 28.566v9.547h-48.796c-1.736 0-3.25 0.668-4.897 0.979v-0.979c-17.853 0-14.648-23.819-14.648-23.819v-173.056c1.647-165.131 151.285-222.253 151.285-222.253h110.993s149.638 57.121 151.285 222.253v173.056s3.206 23.819-14.648 23.819h-47.594c-3.526 0.088-6.865 0.783-9.951 1.983l0.201-0.069v-11.442c-0.2-15.83-13.079-28.585-28.937-28.585-0.126 0-0.252 0.001-0.377 0.002h0.019c-0.093-0.001-0.203-0.002-0.314-0.002-15.858 0-28.737 12.755-28.937 28.566v76.24c0.225 15.81 13.094 28.54 28.936 28.54 0.111 0 0.221-0.001 0.331-0.002h-0.017c0.107 0.001 0.233 0.002 0.359 0.002 15.843 0 28.712-12.73 28.936-28.52v-11.463c2.885 1.132 6.224 1.826 9.713 1.914l0.037 0.001h58.546c1.781 0 3.295-0.668 4.942-0.979l10.106-0.623s60.193 1.603 60.193-82.543v-155.603s-6.5-231.78-195.183-293.665h-42.296v-257.202h-4.452c4.586-117.226 75.375-128.623 116.291-128.623 42.296 0 118.695 1.603 118.695 165.087 0 104.849 35.929 142.202 61.841 155.693 7.791 44.077 46.926 77.69 94.297 77.69 53.025 0 95.944-41.895 95.944-93.629s-42.919-93.674-95.944-93.674zM705.625 363.008c-31.388 0-56.854-24.799-56.854-55.474 0-30.631 25.466-55.519 56.854-55.519s56.854 24.888 56.854 55.519c0 30.675-25.466 55.474-56.854 55.474z" />
<glyph unicode="&#xe936;" glyph-name="horas" d="M451.872 271.26h-174.918c-18.221 0-32.797 14.577-32.797 32.797v0c0 61.95 149.409 178.562 156.698 185.851 7.288 10.932 10.932 21.865 10.932 32.797 0 29.153-21.865 51.018-51.018 51.018s-51.018-21.865-51.018-51.018c0-18.221-14.577-32.797-29.153-32.797-18.221 0-32.797 14.577-32.797 29.153 0 0 0 0 0 0 3.644 61.95 51.018 112.968 116.612 112.968s112.968-51.018 112.968-112.968c0-29.153-10.932-58.306-29.153-76.527l-3.644-3.644c-43.73-32.797-80.171-65.594-116.612-105.68h123.9c18.221 0 32.797-14.577 32.797-32.797s-14.577-29.153-32.797-29.153c0 0 0 0 0 0zM681.452 267.616c-18.221 0-32.797 14.577-32.797 32.797v40.085h-127.544c-10.932 0-21.865 7.288-29.153 18.221s-3.644 21.865 0 32.797l163.986 225.936c10.932 14.577 29.153 18.221 43.73 7.288 7.288-7.288 14.577-14.577 14.577-25.509v-200.427h36.441c18.221 0 32.797-14.577 32.797-32.797s-14.577-32.797-32.797-32.797v0h-36.441v-40.085c0-10.932-14.577-25.509-32.797-25.509v0 0zM579.416 398.804h69.238v102.036l-69.238-102.036zM907.388 755.929l3.644 149.409c0 10.932-7.288 21.865-18.221 21.865s-21.865-7.288-21.865-18.221c0 0 0 0 0 0l-3.644-87.459c-204.071 193.139-528.399 185.851-725.181-18.221s-189.495-528.399 14.577-725.181 528.399-189.495 725.181 14.577c112.968 116.612 163.986 284.242 134.833 444.584-3.644 10.932-14.577 18.221-25.509 14.577s-18.221-10.932-14.577-21.865c43.73-255.089-127.544-499.246-382.633-546.619-25.509-3.644-54.662-7.288-80.171-7.288-112.968 0-225.936 40.085-309.751 116.612-196.783 171.274-218.648 470.093-47.374 666.875s470.093 215.004 666.875 43.73c7.288-7.288 14.577-14.577 21.865-21.865l-109.324 3.644c-10.932 0-21.865-7.288-21.865-18.221 0 0 0 0 0 0 0-10.932 7.288-21.865 18.221-21.865 0 0 0 0 0 0l149.409-7.288c14.577-3.644 21.865 7.288 25.509 18.221 0 0 0 0 0 0z" />
<glyph unicode="&#xe937;" glyph-name="acunputura" horiz-adv-x="968" d="M953.863 571.909c-18.703 32.731-56.11 51.434-93.516 51.434-60.785 0-107.543-46.758-107.543-107.543 0-9.352 0-23.379 4.676-32.731l-243.142-140.274 116.895 331.982h9.352c60.785 0 107.543 46.758 107.543 107.543s-46.758 107.543-107.543 107.543c-60.785 0-107.543-46.758-107.543-107.543 0-37.406 18.703-70.137 46.758-88.84l-140.274-388.091-126.247-74.813 74.813 514.338c60.785 4.676 102.868 60.785 98.192 116.895-4.676 46.758-42.082 88.84-88.84 93.516h-9.352c-60.785 0-102.868-51.434-102.868-107.543 0-18.703 9.352-37.406 18.703-56.11 14.027-14.027 28.055-28.055 46.758-37.406l-79.489-556.42-102.868-60.785-32.731 570.447c56.11 18.703 88.84 79.489 74.813 135.598-14.027 46.758-56.11 79.489-107.543 74.813-60.785-4.676-107.543-51.434-102.868-112.219 4.676-46.758 37.406-88.84 84.164-98.192l28.055-598.502-18.703-14.027c-14.027-9.352-14.027-23.379-9.352-32.731s14.027-14.027 18.703-14.027c4.676 0 9.352 0 14.027 4.676l4.676-88.84c0-14.027 9.352-23.379 23.379-23.379v0c14.027 0 23.379 14.027 23.379 28.055 0 0 0 0 0 0l-4.676 112.219 93.516 56.11-23.379-154.301c0-14.027 9.352-28.055 23.379-28.055 0 0 0 0 0 0h4.676c14.027 0 23.379 9.352 23.379 23.379l28.055 191.708 107.543 65.461-93.516-266.521c-4.676-14.027 0-28.055 14.027-32.731 4.676 0 4.676 0 9.352 0 9.352 0 18.703 4.676 23.379 18.703l112.219 317.954 294.575 173.005c18.703-23.379 46.758-32.731 79.489-32.731 18.703 0 37.406 4.676 56.11 14.027 51.434 28.055 70.137 93.516 37.406 144.95v0zM593.826 801.023c9.352 28.055 42.082 46.758 74.813 32.731 28.055-9.352 46.758-46.758 32.731-74.813-9.352-18.703-28.055-32.731-51.434-32.731-4.676 0-14.027 0-18.703 4.676-32.731 9.352-46.758 42.082-37.406 70.137zM346.009 819.726c-9.352 14.027-14.027 28.055-14.027 42.082 4.676 28.055 28.055 46.758 56.11 46.758h9.352c32.731-4.676 51.434-37.406 46.758-65.461s-28.055-46.758-56.11-46.758h-4.676c-14.027 0-28.055 9.352-37.406 23.379v0zM46.758 810.374c0 14.027 4.676 28.055 14.027 42.082 14.027 9.352 28.055 14.027 42.082 18.703h4.676c32.731 0 56.11-23.379 56.11-56.11s-23.379-56.11-56.11-56.11c-32.731-4.676-56.11 18.703-60.785 51.434zM888.402 469.041c-9.352-4.676-18.703-9.352-28.055-9.352-32.731 0-56.11 23.379-56.11 56.11 0 18.703 9.352 42.082 28.055 51.434 28.055 14.027 60.785 4.676 79.489-18.703 14.027-28.055 4.676-60.785-23.379-79.489 0 0 0 0 0 0z" />
<glyph unicode="&#xe938;" glyph-name="adesao_75anos" horiz-adv-x="1641" d="M1607.043 891.407c-142.086 4.9-289.072-19.598-421.359-73.493-9.799-4.9-14.699-9.799-19.598-19.598 0-9.799 0-14.699 0-24.498-48.995 19.598-122.488 48.995-195.981 78.392-122.488 53.895-200.88 39.196-289.072-29.397h-274.373c0 9.799 4.9 19.598 4.9 29.397s-4.9 19.598-9.799 29.397c-58.794 53.895-293.971 73.493-367.464 78.392-14.699 0-34.297-14.699-34.297-34.297 0 0 0 0 0 0v-617.34c0-14.699 14.699-34.297 34.297-34.297v0h205.78c14.699 0 29.397 9.799 34.297 24.498 0 0 4.9 9.799 9.799 24.498l24.498-24.498c29.397-29.397 63.694-63.694 83.292-83.292 127.388-107.789 279.273-220.478 308.67-240.077 34.297-24.498 78.392-39.196 122.488-39.196 29.397 0 53.895 4.9 78.392 24.498 24.498-9.799 53.895-9.799 78.392 0 29.397 14.699 53.895 34.297 68.593 63.694 29.397-4.9 58.794 0 88.191 14.699 24.498 9.799 44.096 34.297 58.794 58.794 29.397 0 58.794 9.799 78.392 29.397 29.397 24.498 44.096 63.694 39.196 102.89l53.895 39.196c4.9-14.699 4.9-24.498 9.799-29.397 4.9-14.699 19.598-24.498 34.297-24.498h205.78c19.598 0 34.297 14.699 34.297 34.297 0 0 0 0 0 0v607.541c-9.799 19.598-24.498 34.297-44.096 34.297 0 0 0 0 0 0zM215.579 342.66h-146.986v543.847c93.091-4.9 181.282-19.598 269.474-48.995-29.397-166.584-68.593-333.167-122.488-494.852zM1224.88 176.077c-9.799-9.799-29.397-14.699-44.096-9.799-24.498 19.598-132.287 132.287-200.88 200.88-14.699 14.699-34.297 14.699-48.995 0 0 0 0 0 0 0-14.699-14.699-14.699-34.297 0-48.995s142.086-146.986 195.981-195.981c-4.9-14.699-14.699-24.498-24.498-29.397-14.699-9.799-34.297-9.799-53.895 0v0 0c-39.196 34.297-142.086 142.086-166.584 166.584-14.699 14.699-34.297 14.699-48.995 4.9s-14.699-34.297-4.9-48.995c0 0 102.89-107.789 156.785-161.684-4.9-14.699-19.598-29.397-39.196-39.196-14.699-4.9-29.397-4.9-39.196 4.9v0c-48.995 39.196-146.986 146.986-166.584 166.584-14.699 14.699-34.297 14.699-48.995 0s-14.699-34.297 0-48.995c24.498-24.498 93.091-97.99 142.086-146.986h-14.699c-29.397 4.9-58.794 14.699-83.292 29.397s-176.383 127.388-303.77 235.177c-19.598 14.699-48.995 48.995-78.392 78.392-19.598 19.598-39.196 39.196-53.895 53.895 29.397 93.091 68.593 240.077 93.091 357.665h210.679c-48.995-48.995-107.789-142.086-93.091-210.679 4.9-29.397 29.397-53.895 58.794-63.694 73.493-24.498 156.785 0 200.88 68.593 19.598 4.9 34.297 9.799 48.995 14.699l24.498 9.799c39.196-39.196 93.091-78.392 146.986-122.488 102.89-83.292 215.579-171.483 240.077-225.378 14.699-9.799 9.799-29.397-4.9-39.196zM1273.876 288.766c-73.493 78.392-151.885 151.885-240.077 215.579-63.694 48.995-122.488 97.99-156.785 137.187-9.799 9.799-24.498 14.699-34.297 9.799-24.498-9.799-39.196-14.699-48.995-19.598-14.699-9.799-34.297-14.699-48.995-14.699-9.799 0-19.598-4.9-24.498-14.699-48.995-73.493-97.99-68.593-132.287-53.895-9.799 4.9-14.699 9.799-14.699 14.699-4.9 29.397 29.397 97.99 73.493 146.986 112.689 112.689 166.584 137.187 289.072 83.292s230.278-93.091 264.574-107.789c39.196-97.99 93.091-249.876 127.388-352.766l-53.895-44.096zM1572.746 274.067h-146.986c-34.297 107.789-127.388 382.163-181.282 494.852 107.789 34.297 215.579 48.995 328.268 53.895v-548.746z" />
<glyph unicode="&#xe939;" glyph-name="adesao_online" horiz-adv-x="1345" d="M1317.883-64h-1290.332c-18.368 0-27.552 13.776-27.552 32.143 0 0 0 0 0 0 0 13.776 13.776 27.552 27.552 27.552h1290.332c18.368 0 27.552-13.776 27.552-27.552 0-18.368-13.776-32.143-27.552-32.143zM1157.166 124.269h-968.897c-50.511 0-96.43 41.327-96.43 96.43 0 0 0 0 0 0l-9.184 642.87c0 50.511 45.919 96.43 96.43 96.43h982.673c55.103 0 96.43-41.327 96.43-96.43 0 0 0 0 0 0l-9.184-647.462c4.592-50.511-41.327-91.839-91.839-91.839zM1161.758 904.897h-982.673c-18.368 0-36.735-18.368-36.735-36.735 0 0 0 0 0 0l4.592-642.87c0-22.96 18.368-41.327 36.735-41.327 0 0 0 0 0 0h968.897c22.96 0 41.327 18.368 41.327 36.735 0 0 0 0 0 0l4.592 642.87c4.592 22.96-9.184 41.327-36.735 41.327 4.592 0 0 0 0 0v0zM932.161 813.058c-128.574-87.247-243.372-192.861-339.803-316.843l-128.574 105.614c-22.96-18.368-45.919-41.327-68.879-64.287l229.596-252.556c0 0 4.592-4.592 4.592-4.592v0c4.592 0 4.592 4.592 4.592 4.592 73.471 179.085 183.677 339.803 321.435 477.561 4.592 4.592 4.592 9.184 0 9.184 4.592 0-18.368 45.919-22.96 41.327z" />
<glyph unicode="&#xe93a;" glyph-name="alterar_dados" horiz-adv-x="1029" d="M330.99-1.939c-10.343 0-15.515 5.172-20.687 10.343l-237.899 237.899c-5.172 5.172-10.343 15.515-10.343 20.687 0 10.343 5.172 15.515 10.343 20.687l667.152 661.98c10.343 10.343 31.030 10.343 46.545 0l237.899-232.727c10.343-10.343 15.515-31.030 0-46.545 0 0 0 0 0 0l-667.152-661.98c-5.172-5.172-15.515-10.343-25.859-10.343zM144.808 266.99l191.354-191.354 620.606 620.606-191.354 186.182-620.606-615.434zM31.030-64c-20.687 0-31.030 15.515-31.030 36.202 0 0 0 5.172 0 5.172l62.061 299.96c5.172 10.343 25.859 25.859 41.374 20.687 5.172 0 10.343-5.172 15.515-10.343l237.899-237.899c10.343-10.343 10.343-20.687 5.172-31.030s-10.343-20.687-25.859-20.687l-299.96-62.061h-5.172zM113.778 199.758l-41.374-191.354 191.354 41.374-149.98 149.98zM863.677 530.747c-10.343 0-15.515 5.172-25.859 10.343l-237.899 237.899c-10.343 15.515-10.343 36.202 5.172 46.545 10.343 10.343 31.030 10.343 41.374 0l237.899-232.727c10.343-10.343 10.343-31.030 0-46.545 0-10.343-10.343-15.515-20.687-15.515z" />
<glyph unicode="&#xe93b;" glyph-name="analises" horiz-adv-x="1020" d="M1015.775 766.715l-185.060 185.060c-8.225 8.225-24.675 12.337-32.9 4.112s-12.337-24.675-4.112-32.9c0 0 4.112-4.112 4.112-4.112l28.787-28.787-152.161-152.161-98.699 98.699c-8.225 8.225-20.562 8.225-32.9 0 0 0 0 0 0 0-8.225-8.225-8.225-24.675 0-32.9l53.462-53.462-448.257-448.257c-4.112-4.112-8.225-12.337-8.225-16.45 0-45.237 16.45-94.586 45.237-127.486l-176.835-185.060c-8.225-8.225-8.225-24.675 0-32.9 4.112-4.112 8.225-8.225 16.45-8.225s12.337 4.112 16.45 8.225l180.948 180.948c37.012-28.787 82.249-45.237 127.486-45.237 8.225 0 12.337 4.112 16.45 8.225l448.257 448.257 53.462-53.462c4.112-4.112 8.225-8.225 16.45-8.225s12.337 4.112 16.45 8.225 8.225 24.675 0 32.9l-102.811 102.811 152.161 152.161 28.787-28.787c4.112-4.112 8.225-8.225 16.45-8.225s12.337 4.112 16.45 8.225c12.337 4.112 12.337 20.562 4.112 28.787zM337.221 121.060c-82.249 4.112-148.048 69.912-152.161 152.161l24.675 24.675 53.462-53.462c4.112-4.112 8.225-8.225 16.45-8.225s12.337 4.112 16.45 8.225 8.225 24.675 0 32.9l-53.462 53.462 61.687 61.687 28.787-28.787c4.112-4.112 8.225-8.225 16.45-8.225s12.337 4.112 16.45 8.225 8.225 24.675 0 32.9l-32.9 28.787 61.687 61.687 53.462-53.462c8.225-8.225 24.675-4.112 32.9 4.112s8.225 20.562 0 28.787l-53.462 53.462 61.687 61.687 28.787-28.787c4.112-4.112 12.337-8.225 16.45-8.225s12.337 4.112 16.45 8.225c8.225 8.225 8.225 24.675 0 32.9l-28.787 28.787 102.811 98.699 152.161-152.161-440.032-440.032zM764.916 643.341l-61.687 61.687 152.161 152.161 61.687-61.687-152.161-152.161z" />
<glyph unicode="&#xe93c;" glyph-name="balanca" horiz-adv-x="886" d="M440.94 482.619c-109.324 0-196.783 87.459-196.783 196.783s87.459 196.783 196.783 196.783 196.783-87.459 196.783-196.783c0 0 0 0 0 0 0-109.324-87.459-196.783-196.783-196.783zM440.94 847.032c-94.747 0-167.63-76.527-167.63-167.63s76.527-167.63 167.63-167.63 167.63 76.527 167.63 167.63c0 91.103-72.883 167.63-167.63 167.63v0zM440.94 814.235c-7.288 0-14.577 7.288-14.577 14.577v32.797c0 7.288 7.288 10.932 14.577 10.932s10.932-7.288 10.932-10.932v-32.797c3.644-7.288-3.644-14.577-10.932-14.577zM440.94 664.826c-7.288 0-14.577 7.288-14.577 14.577v105.68c0 7.288 3.644 14.577 10.932 14.577s14.577-3.644 14.577-10.932c0 0 0-3.644 0-3.644v-105.68c3.644-7.288-3.644-14.577-10.932-14.577zM546.619 770.505c-3.644 0-7.288 0-10.932 3.644s-3.644 14.577 0 18.221c0 0 0 0 0 0l21.865 21.865c3.644 3.644 14.577 3.644 18.221 0s3.644-14.577 0-18.221l-21.865-21.865c0-3.644-3.644-3.644-7.288-3.644zM623.146 664.826h-32.797c-7.288 0-14.577 3.644-14.577 10.932s3.644 14.577 10.932 14.577c0 0 3.644 0 3.644 0h32.797c7.288 0 10.932-7.288 10.932-14.577s-3.644-10.932-10.932-10.932zM572.128 537.281c-3.644 0-7.288 0-10.932 3.644l-25.509 25.509c-3.644 3.644-3.644 14.577 0 18.221s14.577 7.288 18.221 0c0 0 0 0 0 0l25.509-25.509c3.644-3.644 3.644-14.577 0-18.221 0 0 0 0 0 0 0-3.644-3.644-3.644-7.288-3.644zM291.53 664.826h-29.153c-7.288 0-14.577 3.644-14.577 10.932s3.644 14.577 10.932 14.577c0 0 3.644 0 3.644 0h29.153c7.288 0 14.577-3.644 14.577-10.932s-3.644-14.577-10.932-14.577c0 0 0 0-3.644 0zM338.904 770.505c-3.644 0-7.288 0-10.932 3.644l-21.865 21.865c-3.644 3.644-3.644 14.577 0 18.221s14.577 3.644 18.221 0l21.865-21.865c3.644-3.644 3.644-14.577 0-18.221 0-3.644-3.644-3.644-7.288-3.644zM313.395 537.281c-3.644 0-7.288 0-10.932 3.644s-3.644 14.577 0 18.221l25.509 25.509c3.644 3.644 14.577 3.644 18.221 0 0 0 0 0 0 0 3.644-3.644 3.644-14.577 0-18.221l-25.509-25.509c0-3.644-3.644-3.644-7.288-3.644zM772.555-64h-659.587c-61.95 0-112.968 51.018-112.968 112.968v645.011c0 61.95 51.018 112.968 112.968 112.968h76.527c72.883 138.477 244.157 193.139 382.633 120.256 51.018-25.509 94.747-69.238 120.256-120.256h80.171c61.95 0 112.968-51.018 112.968-112.968v-648.655c0-61.95-51.018-109.324-112.968-109.324zM112.968 759.573c-36.441 0-65.594-29.153-65.594-65.594v-648.655c0-36.441 29.153-65.594 65.594-65.594h659.587c36.441 0 65.594 29.153 65.594 65.594v648.655c0 36.441-29.153 65.594-65.594 65.594h-94.747c-7.288 0-18.221 3.644-21.865 14.577v0c-54.662 120.256-196.783 171.274-313.395 120.256-51.018-25.509-94.747-69.238-116.612-120.256-3.644-7.288-10.932-14.577-21.865-14.577h-91.103z" />
<glyph unicode="&#xe93d;" glyph-name="bottle" horiz-adv-x="645" d="M202.003 848.121h242.404c9.323-20.2 27.97-46.616 41.954-60.601l104.109-97.894c13.985-12.431 13.985-23.308 13.985-35.739v-557.839c0-17.093-20.2-43.508-74.586-68.37s-128.971-37.293-206.665-37.293c-79.247 0-152.279 12.431-206.665 37.293-54.385 23.308-73.032 51.278-73.032 66.816v557.839c0 10.877 1.554 24.862 13.985 35.739l104.109 97.894c12.431 15.539 31.077 41.954 40.401 62.155zM160.049 787.52l-104.109-97.894c-12.431-10.877-13.985-23.308-13.985-35.739v-557.839c0-15.539 18.646-43.508 73.032-66.816s127.417-37.293 206.665-37.293c77.693 0 152.279 13.985 206.665 37.293 54.385 24.862 74.586 51.278 74.586 68.37v0 556.285c0 10.877 0 23.308-13.985 35.739l-104.109 97.894c-13.985 13.985-32.631 40.401-41.954 60.601h-240.85c-9.323-20.2-27.97-46.616-41.954-60.601zM613.778 733.135l-104.109 97.894c-4.662 4.662-9.323 9.323-13.985 15.539h-52.832c9.323-20.2 27.97-46.616 41.954-60.601l104.109-97.894c13.985-12.431 13.985-23.308 13.985-35.739v-557.839c0-17.093-20.2-43.508-74.586-68.37s-128.971-37.293-206.665-37.293c-79.247 0-152.279 12.431-206.665 37.293-54.385 23.308-73.032 51.278-73.032 66.816v557.839c0 10.877 1.554 24.862 13.985 35.739l104.109 97.894c13.985 13.985 32.631 40.401 41.954 60.601h-52.832c-4.662-6.215-9.323-12.431-13.985-15.539l-104.109-96.34c-17.093-17.093-31.077-51.278-31.077-79.247v-559.393c0-104.109 161.602-158.495 321.651-158.495 82.355 0 161.602 13.985 220.649 40.401 85.463 37.293 102.555 85.463 102.555 119.648v557.839c0 27.97-13.985 62.155-31.077 79.247zM442.853 848.121h91.678v111.879h-425.76v-111.879h334.082zM483.253 378.853c0 21.754-18.646 40.401-40.401 40.401h-79.247v79.247c0 21.754-18.646 40.401-40.401 40.401s-40.401-18.646-40.401-40.401v-79.247h-79.247c-21.754 0-40.401-18.646-40.401-40.401s18.646-40.401 40.401-40.401h79.247v-79.247c0-21.754 18.646-40.401 41.954-38.847 21.754 0 38.847 17.093 38.847 38.847v79.247h79.247c21.754 0 40.401 17.093 40.401 40.401z" />
<glyph unicode="&#xe93e;" glyph-name="cartao_medis" horiz-adv-x="1394" d="M1394.472 52.553v790.894c0 62.439-54.114 116.553-116.553 116.553h-1161.366c-66.602 0-116.553-49.951-116.553-116.553 0 0 0 0 0 0v-790.894c0-62.439 49.951-116.553 116.553-116.553 0 0 0 0 0 0h1161.366c62.439 0 116.553 54.114 116.553 116.553zM116.553-18.211c-37.463 0-70.764 33.301-70.764 70.764v790.894c0 37.463 29.138 70.764 66.602 70.764 0 0 0 0 0 0h1161.366c37.463 0 70.764-29.138 70.764-70.764 0 0 0 0 0 0v-790.894c0-37.463-33.301-70.764-70.764-70.764h-1157.203zM536.976 156.618h657.691c12.488 0 20.813-8.325 20.813-20.813s-8.325-20.813-20.813-20.813c0 0 0 0 0 0h-657.691c-12.488 0-20.813 8.325-20.813 20.813s8.325 20.813 20.813 20.813c0 0 0 0 0 0zM536.976 264.846h657.691c12.488 0 20.813-8.325 20.813-20.813s-8.325-20.813-20.813-20.813h-657.691c-12.488 0-20.813 8.325-20.813 20.813s8.325 20.813 20.813 20.813zM536.976 381.398h366.309c12.488 0 20.813-8.325 20.813-20.813s-8.325-20.813-20.813-20.813h-366.309c-12.488 0-20.813 8.325-20.813 20.813s8.325 20.813 20.813 20.813c0 0 0 0 0 0zM478.699 577.041h-95.74v-95.74c0-24.976-20.813-45.789-49.951-45.789-24.976 0-45.789 20.813-45.789 45.789v95.74h-91.577c-29.138 0-49.951 20.813-49.951 45.789s20.813 45.789 45.789 45.789h95.74v95.74c0 24.976 20.813 45.789 49.951 45.789 24.976 0 45.789-20.813 45.789-45.789v-95.74h95.74c24.976 0 49.951-20.813 49.951-45.789-4.163-24.976-24.976-45.789-49.951-45.789 0 0 0 0 0 0v0z" />
<glyph unicode="&#xe93f;" glyph-name="desconto_percentagem" horiz-adv-x="1020" d="M369.66 560.598c-38.241 38.241-106.224 38.241-144.465 0s-38.241-106.224 0-144.465c38.241-38.241 106.224-38.241 144.465 0s38.241 101.975 0 144.465c0 0 0 0 0 0zM263.436 458.622c-16.996 16.996-16.996 42.49 0 59.485s42.49 16.996 59.485 0c16.996-16.996 16.996-42.49 0-59.485 0 0 0 0 0 0-16.996-16.996-42.49-16.996-59.485 0zM573.61 560.598c-38.241-38.241-38.241-106.224 0-144.465s106.224-38.241 144.465 0c38.241 38.241 38.241 106.224 0 144.465s-106.224 38.241-144.465 0c0 0 0 0 0 0zM675.585 458.622c-16.996-16.996-42.49-16.996-59.485 0s-16.996 42.49 0 59.485c16.996 16.996 42.49 16.996 59.485 0 12.747-16.996 12.747-42.49 0-59.485zM471.635 722.058c-16.996 0-29.743-12.747-29.743-29.743v-412.149c0-16.996 12.747-29.743 29.743-29.743s29.743 12.747 29.743 29.743v412.149c0 16.996-12.747 29.743-29.743 29.743zM577.859-64v0c-21.245 0-42.49 8.498-59.485 25.494l-505.627 509.876c-4.249 4.249-8.498 12.747-8.498 16.996l-4.249 386.656c0 21.245 8.498 42.49 25.494 59.485 12.747 16.996 33.992 25.494 59.485 25.494l382.407-4.249c8.498 0 12.747-4.249 16.996-8.498l509.876-509.876c29.743-29.743 29.743-80.73 0-114.722l-365.411-361.162c-12.747-16.996-29.743-25.494-50.988-25.494zM59.485 496.863l497.129-501.378c4.249-4.249 12.747-8.498 21.245-8.498s12.747 4.249 21.245 8.498l365.411 365.411c4.249 4.249 8.498 12.747 8.498 21.245s-4.249 12.747-8.498 21.245l-505.627 497.129-373.909 4.249c-16.996 0-29.743-12.747-29.743-29.743 0 0 0 0 0 0l4.249-378.158zM174.207 705.062c-42.49 0-76.481 33.992-76.481 80.73 0 21.245 8.498 38.241 21.245 55.237 29.743 29.743 80.73 29.743 110.473 0v0c12.747-12.747 21.245-33.992 21.245-55.237 0-42.49-33.992-76.481-76.481-80.73zM174.207 832.531c-12.747 0-25.494-4.249-33.992-16.996-16.996-16.996-16.996-46.739 0-63.734s46.739-16.996 63.734 0c8.498 8.498 12.747 21.245 12.747 33.992s-4.249 25.494-12.747 33.992v0c-8.498 8.498-21.245 12.747-29.743 12.747z" />
<glyph unicode="&#xe940;" glyph-name="enfermeira" horiz-adv-x="832" d="M829.11 101.161c0 99.097-9.91 178.374-72.671 247.742-42.942 42.942-99.097 75.974-155.252 95.794 16.516 52.852 23.123 109.006 19.819 165.161 3.303 59.458-9.91 115.613-42.942 168.465-6.606 9.91-13.213 16.516-19.819 23.123-3.303 3.303-3.303 6.606-3.303 9.91l6.606 36.335c3.303 9.91-3.303 23.123-13.213 26.426l-118.916 82.581c-3.303 3.303-9.91 3.303-13.213 3.303-6.606 0-9.91 0-16.516-3.303l-122.219-82.581c-9.91-3.303-16.516-16.516-13.213-29.729l9.91-39.639c0-3.303 0-6.606-3.303-9.91-6.606-3.303-13.213-13.213-19.819-19.819-33.032-49.548-46.245-109.006-46.245-168.465-3.303-56.155 3.303-112.31 19.819-165.161-59.458-19.819-112.31-52.852-155.252-95.794-59.458-66.065-69.368-148.645-69.368-247.742v0-92.49c0-39.639 29.729-69.368 69.368-69.368 0 0 0 0 0 0h693.677c36.335 0 69.368 29.729 69.368 69.368v0 95.794h-3.303zM284.077 854.297l122.219 82.581c6.606 3.303 9.91 3.303 16.516 0l118.916-82.581c3.303 0 3.303-3.303 3.303-6.606l-13.213-66.065c0-3.303-3.303-3.303-3.303-3.303l-99.097 13.213h-26.426l-99.097-13.213c-3.303 0-3.303 0-3.303 3.303l-13.213 66.065c-6.606 3.303-6.606 6.606-3.303 6.606zM274.168 659.406c3.303 9.91 6.606 19.819 16.516 26.426s19.819 16.516 33.032 19.819l19.819 9.91c19.819 9.91 33.032 29.729 36.335 29.729s16.516-6.606 16.516-9.91c19.819-16.516 39.639-33.032 59.458-49.548 29.729-16.516 62.761-29.729 95.794-39.639 3.303 0 3.303-6.606 3.303-13.213 0-9.91 3.303-23.123 3.303-33.032 0-89.187-109.006-161.858-145.342-161.858-33.032 6.606-62.761 23.123-85.884 49.548-33.032 29.729-56.155 69.368-59.458 115.613 0 19.819 3.303 36.335 6.606 56.155zM393.084-21.058h-327.019c-16.516 0-29.729 13.213-29.729 29.729v0 92.49c0 92.49 9.91 161.858 62.761 221.316 36.335 36.335 79.277 62.761 125.523 79.277 0-3.303 3.303-3.303 3.303-6.606l161.858-201.497 3.303-214.71zM284.077 388.542c6.606-3.303 16.516-3.303 23.123-3.303 16.516 0 33.032 3.303 49.548 3.303 19.819 3.303 39.639 3.303 59.458 6.606 19.819 0 39.639-3.303 56.155-3.303 16.516-3.303 33.032-3.303 46.245-3.303 6.606 0 16.516 0 23.123 3.303l-128.826-158.555-128.826 155.252zM786.168 87.948v-79.277c0-16.516-13.213-29.729-29.729-29.729v0h-327.019v214.71l165.161 204.8 3.303 3.303c46.245-16.516 92.49-42.942 125.523-79.277 52.852-56.155 62.761-125.523 62.761-214.71v0-19.819zM373.265 847.69h19.819c3.303 0 3.303 0 3.303-3.303 0 0 0 0 0 0v-19.819c0-9.91 6.606-16.516 16.516-16.516s16.516 9.91 16.516 16.516v19.819c0 3.303 3.303 3.303 3.303 3.303h19.819c9.91 0 16.516 6.606 16.516 16.516s-6.606 16.516-16.516 16.516h-19.819c0 0-3.303 0-3.303 3.303v19.819c0 9.91-6.606 16.516-16.516 16.516s-16.516-6.606-16.516-16.516v-19.819c0-3.303 0-3.303-3.303-3.303 0 0 0 0 0 0h-19.819c-9.91 0-16.516-6.606-16.516-16.516s9.91-16.516 16.516-16.516v0z" />
<glyph unicode="&#xe941;" glyph-name="family" horiz-adv-x="1191" d="M1172.336 352.299c-33.495 81.346-95.701 143.551-177.047 177.047l-9.57 4.785-23.925 9.57 19.14 9.57c105.271 57.421 143.551 186.617 86.131 291.888-19.14 38.28-47.85 66.991-86.131 86.131-33.495 14.355-71.776 28.71-114.841 28.71-38.28 0-81.346-9.57-114.841-28.71-105.271-57.421-143.551-186.617-86.131-291.888 19.14-38.28 47.85-66.991 86.131-86.131h4.785l19.14-9.57-19.14-4.785c-28.71-9.57-57.421-23.925-86.131-47.85v0c-23.925 14.355-52.636 19.14-81.346 19.14-23.925 0-52.636-4.785-76.561-19.14-14.355 14.355-38.28 28.71-62.206 38.28l-9.57 4.785-23.925 9.57 19.14 9.57c105.271 57.421 143.551 186.617 86.131 291.888-19.14 38.28-47.85 66.991-86.131 86.131-28.71 19.14-71.776 28.71-110.056 28.71-43.065 0-81.346-9.57-114.841-28.71-105.271-57.421-143.551-186.617-86.131-291.888 19.14-38.28 47.85-66.991 86.131-86.131h4.785l19.14-9.57-19.14-4.785c-66.991-23.925-124.411-66.991-162.692-124.411s-57.421-124.411-52.636-196.187c4.785-43.065 43.065-76.561 86.131-76.561h325.383c-4.785-4.785-4.785-4.785-9.57-9.57-28.71-38.28-38.28-86.131-38.28-138.766 0-33.495 28.71-57.421 62.206-57.421h330.168c19.14 0 38.28 9.57 47.85 23.925 28.71 43.065 0 124.411 0 124.411-9.57 19.14-19.14 33.495-28.71 52.636h330.168c28.71 0 52.636 9.57 66.991 33.495 43.065 57.421 0 177.047 0 181.832zM693.832 739.888c0 57.421 33.495 114.841 86.131 143.551s119.626 28.71 172.262 0c81.346-43.065 110.056-138.766 66.991-220.112-14.355-28.71-38.28-52.636-66.991-66.991-52.636-28.71-119.626-28.71-172.262 0s-86.131 81.346-86.131 143.551zM650.766 452.785c52.636-28.71 76.561-100.486 43.065-153.121-9.57-19.14-23.925-33.495-43.065-43.065s-38.28-14.355-62.206-14.355c-19.14 0-43.065 4.785-62.206 14.355-52.636 28.71-76.561 95.701-47.85 153.121 9.57 19.14 28.71 33.495 47.85 47.85 43.065 19.14 90.916 19.14 124.411-4.785zM153.121 739.888c0 57.421 33.495 114.841 86.131 143.551s119.626 28.71 172.262 0c81.346-43.065 110.056-138.766 66.991-220.112-14.355-28.71-38.28-52.636-66.991-66.991s-57.421-23.925-86.131-23.925c-28.71 0-62.206 9.57-86.131 23.925-52.636 28.71-86.131 81.346-86.131 143.551zM57.421 218.318c-4.785 57.421 14.355 114.841 43.065 162.692 52.636 71.776 138.766 119.626 229.682 119.626 33.495 0 66.991-4.785 100.486-19.14 14.355-4.785 28.71-14.355 43.065-23.925-23.925-28.71-38.28-62.206-38.28-95.701 0-52.636 28.71-105.271 76.561-129.196h4.785l14.355-4.785-14.355-4.785c-14.355-4.785-33.495-14.355-47.85-23.925h-382.804c-14.355-9.57-28.71 4.785-28.71 19.14v0zM779.963-20.935v0c0-4.785-4.785-4.785-14.355-4.785h-334.953c-9.57 0-19.14 9.57-23.925 19.14 0 38.28 9.57 81.346 28.71 114.841 33.495 52.636 95.701 81.346 157.907 81.346 76.561 0 143.551-47.85 172.262-114.841 14.355-28.71 23.925-76.561 14.355-95.701v0zM1129.271 199.178v0c-4.785-4.785-14.355-9.57-23.925-9.57h-387.589c-9.57 9.57-23.925 14.355-33.495 19.14l-9.57 4.785-14.355 4.785 14.355 9.57c47.85 28.71 76.561 76.561 76.561 133.981 0 33.495-14.355 66.991-33.495 95.701 43.065 28.71 100.486 47.85 153.121 47.85 33.495 0 71.776-4.785 100.486-19.14 66.991-28.71 119.626-81.346 148.336-148.336 9.57-43.065 28.71-114.841 9.57-138.766v0z" />
<glyph unicode="&#xe942;" glyph-name="foreign" d="M512 960c-282.376 0-512-229.624-512-512s229.624-512 512-512 512 229.624 512 512-231.176 512-512 512zM512-1.939c-38.788 0-91.539 77.576-116.364 238.933h232.727c-26.376-162.909-77.576-238.933-116.364-238.933zM386.327 295.952c-4.655 46.545-7.758 97.745-7.758 155.152 0 54.303 3.103 102.4 6.206 147.394h249.794c4.655-43.442 6.206-93.091 6.206-147.394 0-57.406-3.103-108.606-7.758-155.152h-246.691zM60.509 448c0 52.752 9.309 103.952 26.376 150.497h238.933c-4.655-46.545-6.206-94.642-6.206-147.394 0-55.855 3.103-107.055 7.758-155.152h-240.485c-17.067 48.097-26.376 99.297-26.376 152.048zM512 899.491c38.788 0 91.539-77.576 116.364-240.485h-234.279c24.824 162.909 77.576 240.485 117.915 240.485zM696.63 598.497h238.933c17.067-46.545 26.376-97.745 26.376-150.497s-9.309-103.952-26.376-152.048h-238.933c4.655 48.097 7.758 100.848 7.758 155.152-1.552 52.752-3.103 102.4-7.758 147.394zM909.188 659.006h-218.764c-13.964 97.745-38.788 175.321-71.37 226.521 125.673-31.030 231.176-113.261 290.133-226.521zM404.945 885.527c-32.582-52.752-57.406-128.776-71.37-226.521h-220.315c58.958 113.261 164.461 195.491 291.685 226.521zM113.261 235.442h220.315c13.964-96.194 38.788-173.77 71.37-224.97-125.673 31.030-231.176 113.261-291.685 224.97zM617.503 10.473c32.582 51.2 57.406 128.776 71.37 224.97h220.315c-60.509-111.709-166.012-193.939-291.685-224.97z" />
<glyph unicode="&#xe943;" glyph-name="ginasio" horiz-adv-x="2136" d="M2100.966 601.011h-147.126v153.011c0 47.080-35.31 88.276-82.391 88.276 0 0 0 0 0 0h-105.931c-5.885 0-17.655 0-23.54-5.885v35.31c0 47.080-41.195 88.276-88.276 88.276 0 0 0 0 0 0h-164.782c-47.080 0-88.276-35.31-88.276-82.391 0 0 0 0 0 0v-270.713h-670.897v264.828c0 47.080-35.31 88.276-82.391 88.276 0 0 0 0 0 0h-170.667c-47.080 0-82.391-41.195-82.391-88.276v-29.425c-11.77 0-17.655 5.885-23.54 5.885h-105.931c-47.080 0-88.276-41.195-88.276-88.276 0 0 0 0 0-5.885v-158.897h-147.126c-17.655 5.885-29.425-11.77-29.425-29.425v-241.287c0-17.655 11.77-29.425 29.425-29.425 0 0 0 0 0 0h147.126v-158.897c0-47.080 41.195-82.391 88.276-82.391h105.931c5.885 0 17.655 0 23.54 0v-35.31c0-47.080 41.195-88.276 88.276-88.276h164.782c47.080 0 88.276 41.195 88.276 88.276v270.713h670.897v-270.713c0-47.080 41.195-88.276 88.276-88.276 0 0 0 0 0 0h164.782c47.080 0 88.276 41.195 88.276 88.276v29.425c5.885 0 17.655 0 23.54 0h100.046c47.080 0 88.276 41.195 88.276 88.276v158.897h147.126c17.655 0 29.425 11.77 29.425 29.425v0 247.172c0 17.655-17.655 29.425-35.31 29.425 0 0 0 0 0 0zM64.736 359.724v176.552h117.701v-182.437h-117.701zM370.759 112.552h-105.931c-11.77 0-23.54 11.77-23.54 23.54 0 0 0 0 0 0v617.931c0 11.77 11.77 23.54 23.54 23.54h105.931c11.77 0 23.54-11.77 23.54-23.54v-617.931c0-11.77-11.77-23.54-23.54-23.54zM670.897 24.276c0-11.77-11.77-23.54-23.54-23.54h-170.667c-11.77 0-23.54 11.77-23.54 23.54v847.448c0 11.77 11.77 23.54 23.54 23.54v0h170.667c11.77 0 23.54-11.77 23.54-23.54 0 0 0 0 0 0v-847.448zM735.632 359.724v176.552h670.897v-182.437l-670.897 5.885zM1677.241 24.276c0-11.77-11.77-23.54-23.54-23.54h-164.782c-11.77 0-23.54 11.77-23.54 23.54v847.448c0 11.77 11.77 23.54 23.54 23.54h164.782c11.77 0 23.54-11.77 23.54-23.54 0 0 0 0 0 0v-847.448zM1889.103 136.092c0-11.77-11.77-23.54-23.54-23.54 0 0 0 0 0 0h-100.046c-11.77 0-23.54 11.77-23.54 23.54 0 0 0 0 0 0v617.931c0 11.77 11.77 23.54 23.54 23.54 0 0 0 0 0 0h100.046c11.77 0 23.54-11.77 23.54-23.54 0 0 0 0 0 0v-617.931zM2071.54 359.724h-117.701v176.552h117.701v-176.552z" />
<glyph unicode="&#xe944;" glyph-name="glasses" horiz-adv-x="2713" d="M2649.693 552.642h-145.752c-48.584 231.708-254.131 407.358-500.788 407.358-239.182 0-440.993-164.438-497.051-384.934-41.109 41.109-93.431 63.533-149.489 63.533s-112.117-26.161-149.489-63.533c-56.058 220.496-257.869 384.934-497.051 384.934-250.394 0-455.942-175.65-504.526-407.358h-145.752c-33.635 0-59.796-26.161-59.796-59.796s26.161-59.796 59.796-59.796h138.277c7.474-276.555 231.708-497.051 512-497.051 284.029 0 512 227.971 512 512 0 7.474 0 11.212 0 18.686 26.161 52.321 78.482 89.693 134.54 89.693s108.38-37.372 134.54-89.693c0-7.474 0-11.212 0-18.686 0-284.029 227.971-512 512-512 276.555 0 504.526 220.496 512 497.051h138.277c33.635 0 59.796 26.161 59.796 59.796s-29.898 59.796-63.533 59.796zM710.073 40.642c-227.971 0-411.095 183.124-411.095 411.095s183.124 411.095 411.095 411.095 411.095-183.124 411.095-411.095c-3.737-227.971-186.861-411.095-411.095-411.095zM2003.153 40.642c-227.971 0-411.095 183.124-411.095 411.095s183.124 411.095 411.095 411.095 411.095-183.124 411.095-411.095c-3.737-227.971-186.861-411.095-411.095-411.095z" />
</font>
</defs>
</svg>
